img image001 image001 image001 image001 image001 image001 image001 image001 image001 image001 image001 image001 image001 image001 image001

Planets Sun Sun Sun
Статистика раздачи
Автор: Nickolas3434 | Размер: 1.46 ГБ | Добавлен: 05 апр 2014
Раздают: 227    Качают: 145
Скачать торрент
Скачать торрент
Описание торрента

СообщениеДобавлено: 05 апр 2014 


Страна: Россия / Каропрокат Россия, TFD Film Ukraine Украина

Жанр: комедия, фантастика
Год выпуска: 2014
Продолжительность: 01:22:16

Перевод: Не требуется
Cубтитры: нет
Оригинальная аудиодорожка: русский

Режиссер: Евгений Абызов

В ролях: Гарик Харламов, Кристина Асмус, Екатерина Васильева, Александр Ревва, Татьяна Космачева, Владимир Яглыч, Сергей Сафронов, Юрий Кузнецов, Анна Антонова, Александр Самойленко...

Описание: Молодому и успешному риелтору Павлу, провернувшему немало полулегальных сделок, необходимо получить доверенность на куплю-продажу старинного поместья. А для этого втереться в доверие к владелице недвижимости, одинокой старушке, доживающей свои дни в родовом гнезде. Разработав хитрый план, риелтор-аферист получает заветную бумагу и начинает готовить поместье к продаже, празднуя очередную победу. Но не тут-то было! В отлаженный ход событий вмешиваются высшие силы. С наступлением темноты с Павлом происходят необъяснимые события — он внезапно начинает перемещаться в пространстве…



Качество: BDRip / Blu-ray 1080p
Формат: AVI

Видео: 720x304 (2.35:1), 24.000 fps, XViD ~ 2077 kbps avg, 0.395 bit/pixel
Аудио: 48 kHz, Dolby AC3, 6 ch, 448 kbps, русский

Раздача от:
Общее
Полное имя : Legok.na.pomine.2014.O.BDRip_[New-Team]_by_avproh.avi
Формат : AVI
Формат/Информация : Audio Video Interleave
Размер файла : 1,46 Гбайт
Продолжительность : 1 ч. 22 м.
Общий поток : 2535 Кбит/сек
Программа кодирования : VirtualDubModRus 1.5.10.2 (build 2542/release)
Библиотека кодирования : VirtualDubMod build 2542/release

Видео
Идентификатор : 0
Формат : MPEG-4 Visual
Профиль формата : Advanced Simple@L5
Параметр BVOP формата : 1
Параметр QPel формата : Нет
Параметр GMC формата : Без точки перехода
Параметр матрицы формата : Выборочная
Идентификатор кодека : XVID
Идентификатор кодека/Подсказка : XviD
Продолжительность : 1 ч. 22 м.
Битрейт : 2077 Кбит/сек
Ширина : 720 пикселей
Высота : 304 пикселя
Соотношение сторон : 2,35:1
Частота кадров : 24,000 кадра/сек
Цветовое пространство : YUV
Субдискретизация насыщенности : 4:2:0
Битовая глубина : 8 бит
Тип развёртки : Прогрессивная
Метод сжатия : С потерями
Бит/(Пиксели*Кадры) : 0.395
Размер потока : 1,19 Гбайт (82%)
Библиотека кодирования : XviD 73

Аудио
Идентификатор : 1
Формат : AC-3
Формат/Информация : Audio Coding 3
Расширение режима : CM (complete main)
Параметр Endianness формата : Big
Идентификатор кодека : 2000
Продолжительность : 1 ч. 22 м.
Вид битрейта : Постоянный
Битрейт : 448 Кбит/сек
Каналы : 6 каналов
Расположение каналов : Front: L C R, Side: L R, LFE
Частота : 48,0 КГц
Битовая глубина : 16 бит
Метод сжатия : С потерями
Размер потока : 264 Мбайт (18%)
Выравнивание : Разделение по промежуткам
Продолжительность промежутка : 42 мс. (1,00 видеокадр)
Время предзагрузки промежутка : 500 мс.




Торрет перезалит 5 апреля 2014 года. Звук был некачественный, я всё испрвил, приношу извинения.



   Похожие торренты   Торрент   Размер 
В этой теме нет новых непрочитанных сообщений. Легок на помине (2014) BDRip от New-Team | Лицензия

288 | 139

745.39 МБ

В этой теме нет новых непрочитанных сообщений. Легок на помине (2014) BDRip-AVC от New-Team | лицензия

2366 | 373

1.46 ГБ

В этой теме нет новых непрочитанных сообщений. Легок на помине (2014) BDRip-AVC от New-Team | Лицензия

141 | 39

743.52 МБ

В этой теме нет новых непрочитанных сообщений. Легок на помине (2014) BDRip 720p от New-Team | лицензия

715 | 175

3.28 ГБ

В этой теме нет новых непрочитанных сообщений. Легок на помине (2014) BDRip 1080p от New-Team | лицензия

315 | 214

5.85 ГБ

В этой теме нет новых непрочитанных сообщений. Легок на помине (2014) DVD5 R5 от New-Team | лицензия

195 | 123

4.35 ГБ

В этой теме нет новых непрочитанных сообщений. Легок на помине (2014) BDRemux 1080p от New-Team | лицензия

66 | 115

19.89 ГБ




Вы не можете начинать темы
Вы не можете отвечать на сообщения
Вы не можете редактировать свои сообщения
Вы не можете удалять свои сообщения
Вы не можете добавлять вложения

Перейти:  
Для Мосгорсуда, Роскомнадзора и рекламодателей: mosgorsud-torrent[собачка]yandex.ru
 Вход
ppkBB3cker v.2 © 2008-2014 @ PPK
[ Time : 0.035s | 16 Queries | GZIP : Off ]

cron