img image001 image001 image001 image001 image001 image001 image001 image001 image001 image001 image001 image001 image001 image001 image001

Planets Sun Sun Sun
Статистика раздачи
Автор: Nickolas3434 | Размер: 1.46 ГБ | Добавлен: 06 апр 2014
Раздают: 48    Качают: 29
Скачать торрент
Скачать торрент
Описание торрента

СообщениеДобавлено: 06 апр 2014 


Страна: Россия
Производство: Триикс Медиа по заказу телекомпании НТВ
Жанр: Детектив
Год выпуска: 2011

Продолжительность: 01:29:54

Язык: Русский

Режиссер: Артём Антонов

В ролях: Анатолий Кот, Мария Мещерякова, Анна Гарнизонова, Иван Корытов, Александр Машанов, Сергей Кузнецов, Дмитрий Сутырин, Евгений Савчук, Валерия Шкирандо, Пётр Гаврилюк, Михаил Морозов, Юлия Зоркина, Анна Табанина, Алексей Кашников

Описание: В городе происходит серия квартирных краж. Преступники переодеваются в бригаду скорой помощи и передвигаются на автомобиле "Скорой". Все нити следствия ведут к врачу бригады "скорой помощи" одной из частных клиник доктора Иванова. Иванов человек резкий и некоммуникабельный, но причастен ли он к преступлениям?



Исходник: DVD5 R5

Тип релиза: DVDRip

Контейнер: AVI

Видео: XviD, 1862 Кбит/с, 704x384
Аудио: АС3, 6 ch, 448 Кбит/с

Общее
Полное имя : D:1АААВрача вызывали.avi
Формат : AVI
Формат/Информация : Audio Video Interleave
Размер файла : 1,46 Гбайт
Продолжительность : 1 ч. 29 м.
Общий поток : 2319 Кбит/сек
Программа кодирования : VirtualDubMod 1.5.10.3 | www.virtualdub-fr.org || (build 2550/release)
Библиотека кодирования : VirtualDubMod build 2550/release

Видео
Идентификатор : 0
Формат : MPEG-4 Visual
Профиль формата : Advanced Simple@L5
Параметр BVOP формата : 2
Параметр QPel формата : Нет
Параметр GMC формата : Без точки перехода
Параметр матрицы формата : Default (MPEG)
Идентификатор кодека : XVID
Идентификатор кодека/Подсказка : XviD
Продолжительность : 1 ч. 29 м.
Битрейт : 1862 Кбит/сек
Ширина : 704 пикселя
Высота : 384 пикселя
Соотношение сторон : 1,85:1
Частота кадров : 23,976 кадра/сек
Цветовое пространство : YUV
Субдискретизация насыщенности : 4:2:0
Битовая глубина : 8 бит
Тип развёртки : Прогрессивная
Метод сжатия : С потерями
Бит/(Пиксели*Кадры) : 0.287
Размер потока : 1,17 Гбайт (80%)
Библиотека кодирования : XviD 1.2.1 (UTC 2008-12-04)

Аудио
Идентификатор : 1
Формат : AC-3
Формат/Информация : Audio Coding 3
Расширение режима : CM (complete main)
Параметр Endianness формата : Big
Идентификатор кодека : 2000
Продолжительность : 1 ч. 29 м.
Вид битрейта : Постоянный
Битрейт : 448 Кбит/сек
Каналы : 6 каналов
Расположение каналов : Front: L C R, Side: L R, LFE
Частота : 48,0 КГц
Битовая глубина : 16 бит
Метод сжатия : С потерями
Размер потока : 288 Мбайт (19%)
Выравнивание : Разделение по промежуткам
Продолжительность промежутка : 42 мс. (1,00 видеокадр)
Время предзагрузки промежутка : 500 мс.




Релиз группа:
Автор рипа:



   Похожие торренты   Торрент   Размер 
В этой теме нет новых непрочитанных сообщений. Врача вызывали? (2011) SATRip - BigFANGroup

0 | 2

1.26 ГБ

В этой теме нет новых непрочитанных сообщений. Без обмана. Врача не вызывали ? [01] [02.09] (2015) SATRip

11 | 2

542.06 МБ

В этой теме нет новых непрочитанных сообщений. Без обмана. Врача не вызывали ? [01-02] (2015) SATRip, WEBRip

24 | 7

977.97 МБ

В этой теме нет новых непрочитанных сообщений. Джинна вызывали? / Kazaam (1996) DVDRip

43 | 4

1.45 ГБ

В этой теме нет новых непрочитанных сообщений. Джинна вызывали? / Kazaam (1996) DVDRip

59 | 7

1.45 ГБ

В этой теме нет новых непрочитанных сообщений. Похождения зубного врача (1965) DVDRip от Киномагия

13 | 6

700.21 МБ

В этой теме нет новых непрочитанных сообщений. Снегурочку вызывали? (1985) SATRip-AVC

57 | 8

1.14 ГБ




Вы не можете начинать темы
Вы не можете отвечать на сообщения
Вы не можете редактировать свои сообщения
Вы не можете удалять свои сообщения
Вы не можете добавлять вложения

Перейти:  
Для Мосгорсуда, Роскомнадзора и рекламодателей: mosgorsud-torrent[собачка]yandex.ru
 Вход
ppkBB3cker v.2 © 2008-2014 @ PPK
[ Time : 0.047s | 14 Queries | GZIP : Off ]

Торрент трекер RUTOR.IN, Не можете зайти на rutor.org? Какой новый адрес рутор? Какое зеркало рутор? Не работает rutor.org и зеркала? Тогда наш торрент специально для вас. Rutor.in неофициальное зеркало rutor. В случае если у Вас заблокирован rutor или вдруг Вы не можете на него зайти, то Вы без труда сможете скачать бесплатно и без рекламы последние новинки кино, игр, сериалов и прочего у нас, на Rutor.in. Не нужно использовать прокси, чтобы зайти на рутор, достаточно воспользоваться нашим ресурсом. Все новые фильмы, игры, сериалы, книги и музыка за 2013 и 2014 годы через торрент бесплатно. Скачивайте фильмы в хорошем качестве, игры для пк, xbox, playstation без регистрации. У нас вы найдете новые Зарубежные сериалы и Русские сериалы 2013, 2014, 2015 годов. Оставайтесь с нами, качайте любимые фильмы, игры, сериалы, книги и музыку.