img image001 image001 image001 image001 image001 image001 image001 image001 image001 image001 image001 image001 image001 image001 image001

Planets Sun Sun Sun
Статистика раздачи
Автор: Nickolas3434 | Размер: 745.39 МБ | Добавлен: 06 апр 2014
Раздают: 288    Качают: 139
Скачать торрент
Скачать торрент
Описание торрента

СообщениеДобавлено: 06 апр 2014 


Страна: Россия / Каропрокат Россия, TFD Film Ukraine Украина

Жанр: комедия, фантастика
Год выпуска: 2014
Продолжительность: 01:22:16

Перевод: Не требуется
Cубтитры: нет
Оригинальная аудиодорожка: русский

Режиссер: Евгений Абызов

В ролях: Гарик Харламов, Кристина Асмус, Екатерина Васильева, Александр Ревва, Татьяна Космачева, Владимир Яглыч, Сергей Сафронов, Юрий Кузнецов, Анна Антонова, Александр Самойленко...

Описание: Молодому и успешному риелтору Павлу, провернувшему немало полулегальных сделок, необходимо получить доверенность на куплю-продажу старинного поместья. А для этого втереться в доверие к владелице недвижимости, одинокой старушке, доживающей свои дни в родовом гнезде. Разработав хитрый план, риелтор-аферист получает заветную бумагу и начинает готовить поместье к продаже, празднуя очередную победу. Но не тут-то было! В отлаженный ход событий вмешиваются высшие силы. С наступлением темноты с Павлом происходят необъяснимые события — он внезапно начинает перемещаться в пространстве…



Качество: BDRip / Blu-ray 1080p
Формат: AVI

Видео: 720x304 (2.35:1), 24.000 fps, XViD ~ 1129 kbps avg, 0.215 bit/pixel
Аудио: 48 kHz, Dolby MP3, 2 ch, 128 kbps, русский

Раздача от:
Общее
Полное имя : Legok.na.pomine.2014.O.BDRip.745MB_[New-Team]_by_avproh.avi
Формат : AVI
Формат/Информация : Audio Video Interleave
Размер файла : 745 Мбайт
Продолжительность : 1 ч. 22 м.
Общий поток : 1267 Кбит/сек
Программа кодирования : VirtualDubModRus 1.5.10.2 (build 2542/release)
Библиотека кодирования : VirtualDubMod build 2542/release

Видео
Идентификатор : 0
Формат : MPEG-4 Visual
Профиль формата : Advanced Simple@L5
Параметр BVOP формата : 1
Параметр QPel формата : Нет
Параметр GMC формата : Без точки перехода
Параметр матрицы формата : Выборочная
Идентификатор кодека : XVID
Идентификатор кодека/Подсказка : XviD
Продолжительность : 1 ч. 22 м.
Битрейт : 1129 Кбит/сек
Ширина : 720 пикселей
Высота : 304 пикселя
Соотношение сторон : 2,35:1
Частота кадров : 24,000 кадра/сек
Цветовое пространство : YUV
Субдискретизация насыщенности : 4:2:0
Битовая глубина : 8 бит
Тип развёртки : Прогрессивная
Метод сжатия : С потерями
Бит/(Пиксели*Кадры) : 0.215
Размер потока : 665 Мбайт (89%)
Библиотека кодирования : XviD 73

Аудио
Идентификатор : 1
Формат : MPEG Audio
Версия формата : Version 1
Профиль формата : Layer 3
Режим : Joint stereo
Расширение режима : MS Stereo
Идентификатор кодека : 55
Идентификатор кодека/Подсказка : MP3
Продолжительность : 1 ч. 22 м.
Вид битрейта : Постоянный
Битрейт : 128 Кбит/сек
Каналы : 2 канала
Частота : 48,0 КГц
Метод сжатия : С потерями
Размер потока : 75,3 Мбайт (10%)
Выравнивание : Соединение по промежуткам
Продолжительность промежутка : 42 мс. (1,00 видеокадр)
Время предзагрузки промежутка : 504 мс.



Торрет перезалит 5 апреля 2014 года. Звук был некачественный, я всё исправил, приношу извинения.



   Похожие торренты   Торрент   Размер 
В этой теме нет новых непрочитанных сообщений. Легок на помине (2014) BDRip-AVC от New-Team | Лицензия

141 | 39

743.52 МБ

В этой теме нет новых непрочитанных сообщений. Легок на помине (2014) BDRip от New-Team | лицензия

217 | 145

1.46 ГБ

В этой теме нет новых непрочитанных сообщений. Легок на помине (2014) BDRip-AVC от New-Team | лицензия

2338 | 372

1.46 ГБ

В этой теме нет новых непрочитанных сообщений. Легок на помине (2014) BDRip 720p от New-Team | лицензия

715 | 175

3.28 ГБ

В этой теме нет новых непрочитанных сообщений. Легок на помине (2014) BDRip 1080p от New-Team | лицензия

306 | 214

5.85 ГБ

В этой теме нет новых непрочитанных сообщений. Легок на помине (2014) DVD5 R5 от New-Team | лицензия

195 | 123

4.35 ГБ

В этой теме нет новых непрочитанных сообщений. Легок на помине (2014) BDRemux 1080p от New-Team | лицензия

66 | 115

19.89 ГБ




Вы не можете начинать темы
Вы не можете отвечать на сообщения
Вы не можете редактировать свои сообщения
Вы не можете удалять свои сообщения
Вы не можете добавлять вложения

Перейти:  
Для Мосгорсуда, Роскомнадзора и рекламодателей: mosgorsud-torrent[собачка]yandex.ru
 Вход
ppkBB3cker v.2 © 2008-2014 @ PPK
[ Time : 0.047s | 15 Queries | GZIP : Off ]

Торрент трекер RUTOR.IN, Не можете зайти на rutor.org? Какой новый адрес рутор? Какое зеркало рутор? Не работает rutor.org и зеркала? Тогда наш торрент специально для вас. Rutor.in неофициальное зеркало rutor. В случае если у Вас заблокирован rutor или вдруг Вы не можете на него зайти, то Вы без труда сможете скачать бесплатно и без рекламы последние новинки кино, игр, сериалов и прочего у нас, на Rutor.in. Не нужно использовать прокси, чтобы зайти на рутор, достаточно воспользоваться нашим ресурсом. Все новые фильмы, игры, сериалы, книги и музыка за 2013 и 2014 годы через торрент бесплатно. Скачивайте фильмы в хорошем качестве, игры для пк, xbox, playstation без регистрации. У нас вы найдете новые Зарубежные сериалы и Русские сериалы 2013, 2014, 2015 годов. Оставайтесь с нами, качайте любимые фильмы, игры, сериалы, книги и музыку.