img image001 image001 image001 image001 image001 image001 image001 image001 image001 image001 image001 image001 image001 image001 image001

Planets Sun Sun Sun
Статистика раздачи
Автор: Nickolas3434 | Размер: 1.77 ГБ | Добавлен: 07 апр 2014
Раздают: 70    Качают: 40
Скачать торрент
Скачать торрент
Описание торрента

СообщениеДобавлено: 07 апр 2014 

Информация о фильме
Оригинальное название: Кружение в пределах кольцевой
Год выхода: 2006
Жанр: Драма
Режиссер: Рамиль Салахутдинов
В ролях: Дмитрий Воробьёв (II), Светлана Письмиченко, Олег Ковалов, Елена Попова, Дмитрий Воронец, Константин Бурдуков, Борис Войцеховский, Константин Зубрицкий, Сергей Кошонин, Алексей Барабаш

О фильме:
У удачливого бизнесмена из-за интриг конкурента в одночасье рушится бизнес. Все еще можно спасти, надо только просто кивнуть головой и согласиться на устранение человека, ставшего причиной этих бед… В это самое время его жена, не ведающая о проблемах мужа, пытается вызвать у него ревность и сама же страдает… А у некогда популярного телеведущего и его экс-супруги, тоже бывшей телезвезды, дочь оказывается наркоманкой, и эта беда странно объединяет их, вечно ссорящихся… Некие горе-мошенники под видом переписчиков населения проникают в квартиру и пытаются обокрасть человека, недавно потерявшего жену, — а у него и красть-то нечего… Местный дурачок средних лет оплакивает свою рогатку, которая ему нужна, чтобы отгонять ворон… Что может объединить этих таких разных людей, кроме безликого, но такого узнаваемого мегаполиса, где они встречаются — то намеренно, то случайно…


Страна: Россия
Студия: Кинокомпания СЕВЕР
Продолжительность: 01:52:22
Язык: Русский
Файл
Качество: DVB
Видео: MPEG-2, 2013 Кбит/с, 704x576@768x576
Звук: (MP2, 2 ch, 128 Кбит/с)

Семпл


Общее
Полное имя : Kruzhenie.v.predelax.kolcevoj.2006.DVB.MediaClub.ts
Формат : MPEG-TS
Профиль формата : No PAT/PMT
Размер файла : 1,77 Гбайт
Продолжительность : 1 ч. 52 м.
Общий поток : 2254 Кбит/сек

Видео
Идентификатор : 204 (0xCC)
Формат : AVC
Формат/Информация : Advanced Video Codec
Профиль формата : High@L3.0
Параметр CABAC формата : Да
Параметр ReFrames формата : 3 кадра
Продолжительность : 1 ч. 52 м.
Битрейт : 2013 Кбит/сек
Ширина : 704 пикселя
Высота : 576 пикселей
Соотношение сторон : 4:3
Частота кадров : 25,000 кадров/сек
Стандарт вещания : Component
Цветовое пространство : YUV
Субдискретизация насыщенности : 4:2:0
Битовая глубина : 8 бит
Тип развёртки : Чересстрочная
Порядок развёртки : Верхнее поле первое
Бит/(Пиксели*Кадры) : 0.199
Размер потока : 1,58 Гбайт (89%)
Основные цвета : BT.601 PAL
Характеристики трансфера : BT.470 System B, BT.470 System G
Коэффициенты матрицы : BT.601

Аудио
Идентификатор : 304 (0x130)
Формат : MPEG Audio
Версия формата : Version 1
Профиль формата : Layer 2
Продолжительность : 1 ч. 52 м.
Вид битрейта : Постоянный
Битрейт : 128 Кбит/сек
Каналы : 2 канала
Частота : 48,0 КГц
Метод сжатия : С потерями
Задержка видео : -614 мс.
Размер потока : 103 Мбайт (6%)


Релиз от:



   Похожие торренты   Торрент   Размер 
В этой теме нет новых непрочитанных сообщений. Кружение в пределах кольцевой (2006) SATRip от MediaClub

14 | 2

1.56 ГБ

В этой теме нет новых непрочитанных сообщений. Дикари (2006) DVDRip от MediaClub | КПК

425 | 19

488.74 МБ

В этой теме нет новых непрочитанных сообщений. Остров (2006) DVDRip от MediaClub | КПК

86 | 6

495.33 МБ

В этой теме нет новых непрочитанных сообщений. Хоттабыч / }{отт@бь)ч (2006) WEB-DLRip-AVC от MediaClub

134 | 8

1.63 ГБ

В этой теме нет новых непрочитанных сообщений. Сволочи (2006) DVDRip от MediaClub | КПК

127 | 4

622.42 МБ

В этой теме нет новых непрочитанных сообщений. Мой генерал [01-08 из 08] (2006) DVDRip от MediaClub | КПК

227 | 16

1.58 ГБ

В этой теме нет новых непрочитанных сообщений. Месть / The Return (2006) BDRip-AVC от MediaClub | D

129 | 11

2.13 ГБ




Вы не можете начинать темы
Вы не можете отвечать на сообщения
Вы не можете редактировать свои сообщения
Вы не можете удалять свои сообщения
Вы не можете добавлять вложения

Перейти:  
Для Мосгорсуда, Роскомнадзора и рекламодателей: mosgorsud-torrent[собачка]yandex.ru
 Вход
ppkBB3cker v.2 © 2008-2014 @ PPK
[ Time : 0.026s | 15 Queries | GZIP : Off ]

Торрент трекер RUTOR.IN, Не можете зайти на rutor.org? Какой новый адрес рутор? Какое зеркало рутор? Не работает rutor.org и зеркала? Тогда наш торрент специально для вас. Rutor.in неофициальное зеркало rutor. В случае если у Вас заблокирован rutor или вдруг Вы не можете на него зайти, то Вы без труда сможете скачать бесплатно и без рекламы последние новинки кино, игр, сериалов и прочего у нас, на Rutor.in. Не нужно использовать прокси, чтобы зайти на рутор, достаточно воспользоваться нашим ресурсом. Все новые фильмы, игры, сериалы, книги и музыка за 2013 и 2014 годы через торрент бесплатно. Скачивайте фильмы в хорошем качестве, игры для пк, xbox, playstation без регистрации. У нас вы найдете новые Зарубежные сериалы и Русские сериалы 2013, 2014, 2015 годов. Оставайтесь с нами, качайте любимые фильмы, игры, сериалы, книги и музыку.