img image001 image001 image001 image001 image001 image001 image001 image001 image001 image001 image001 image001 image001 image001 image001

Planets Sun Sun Sun
Статистика раздачи
Автор: Nickolas3434 | Размер: 744.29 МБ | Добавлен: 09 апр 2014
Раздают: 32    Качают: 12
Скачать торрент
Скачать торрент
Описание торрента

СообщениеДобавлено: 09 апр 2014 

Страна: СССР
Производство: Свердловская киностудия

Жанр: драма, военный
Год выпуска: 1989
Продолжительность: 01:14:24

Перевод: не требуется
Оригинальная аудиодорожка: русский
Cубтитры: нет

Режиссер: Владимир Лаптев

В ролях:
Сергей Быстрицкий, Виталий Зикора, Виктор Соловьёв, Гедиминас Гирдвайнис, Юрий Ершов, Вадим Завьялов, Владимир Кабалин, Юрий Лазарев, Альгис Матулёнис, Виктор Рыбчинский, Владимир Фирсов, Вадим Яковлев, Виталий Яковлев, Анатолий Галиев...

Описание:
Начало войны. Выпускник летного училища Тесленко летит ведомым у командира эскадрильи Грабаря. Их сбивают, и Тесленко оказывается в лагере при немецком аэродроме, где советские летчики с ограниченным запасом горючего служат живыми мишенями для немецких курсантов летной школы. Однако Тесленко удалось совершить побег. Добравшись до расположения советских войск, он был арестован и осужден по 58-й статье…





Исходник: DVD5 R5
Тип релиза: DVDRip
Контейнер: AVI

Видео: 672x512 (4:3), 25 fps, XviD ~ 1261 kbps avg, 0.147 bit/pixel
Аудио: 48 kHz, MP3 2.0, 128 kbps

Раздача от:
Общее
Полное имя : Ohota.na.edinoroga.1989.DVDRip-745_[New-team]_by_AVP_Studio.avi
Формат : AVI
Формат/Информация : Audio Video Interleave
Размер файла : 744 Мбайт
Продолжительность : 1 ч. 14 м.
Общий поток : 1399 Кбит/сек
Программа кодирования : VirtualDubModRus 1.5.10.2 (build 2542/release)
Библиотека кодирования : VirtualDubMod build 2542/release

Видео
Идентификатор : 0
Формат : MPEG-4 Visual
Профиль формата : Advanced Simple@L5
Параметр BVOP формата : 1
Параметр QPel формата : Нет
Параметр GMC формата : Без точки перехода
Параметр матрицы формата : Выборочная
Идентификатор кодека : XVID
Идентификатор кодека/Подсказка : XviD
Продолжительность : 1 ч. 14 м.
Битрейт : 1261 Кбит/сек
Ширина : 672 пикселя
Высота : 512 пикселей
Соотношение сторон : 4:3
Частота кадров : 25,000 кадров/сек
Цветовое пространство : YUV
Субдискретизация насыщенности : 4:2:0
Битовая глубина : 8 бит
Тип развёртки : Прогрессивная
Метод сжатия : С потерями
Бит/(Пиксели*Кадры) : 0.147
Размер потока : 671 Мбайт (90%)
Библиотека кодирования : XviD 73

Аудио
Идентификатор : 1
Формат : MPEG Audio
Версия формата : Version 1
Профиль формата : Layer 3
Идентификатор кодека : 55
Идентификатор кодека/Подсказка : MP3
Продолжительность : 1 ч. 14 м.
Вид битрейта : Постоянный
Битрейт : 128 Кбит/сек
Каналы : 2 канала
Частота : 48,0 КГц
Метод сжатия : С потерями
Размер потока : 68,1 Мбайт (9%)
Выравнивание : Соединение по промежуткам
Продолжительность промежутка : 40 мс. (1,00 видеокадр)
Время предзагрузки промежутка : 504 мс.
Библиотека кодирования : LAME3.99r
Настройки программы : -m s -V 4 -q 2 -lowpass 17 -b 128





   Похожие торренты   Торрент   Размер 
В этой теме нет новых непрочитанных сообщений. Охота на единорога (1989) DVDRip-AVC от New-Team

10 | 19

1.09 ГБ

В этой теме нет новых непрочитанных сообщений. Охота на единорога (1989) DVDRip от New-Team

24 | 15

1.09 ГБ

В этой теме нет новых непрочитанных сообщений. Охота на единорога (1989) DVDRip

3 | 10

1.37 ГБ

В этой теме нет новых непрочитанных сообщений. Охота на единорога (1989) DVDRip от Alekxandr48

16 | 3

700.82 МБ

В этой теме нет новых непрочитанных сообщений. Американский ниндзя 3: Кровавая охота / American Ninja 3: Blood Hunt (1989) DVDRip

82 | 8

698.99 МБ

В этой теме нет новых непрочитанных сообщений. Царская охота (1990) DVDRip-AVC от New-Team

39 | 5

2.19 ГБ

В этой теме нет новых непрочитанных сообщений. Царская охота (1990) DVDRip от New-Team

50 | 10

1.46 ГБ




Вы не можете начинать темы
Вы не можете отвечать на сообщения
Вы не можете редактировать свои сообщения
Вы не можете удалять свои сообщения
Вы не можете добавлять вложения

Перейти:  
Для Мосгорсуда, Роскомнадзора и рекламодателей: mosgorsud-torrent[собачка]yandex.ru
 Вход
ppkBB3cker v.2 © 2008-2014 @ PPK
[ Time : 0.047s | 15 Queries | GZIP : On ]

Торрент трекер RUTOR.IN, Не можете зайти на rutor.org? Какой новый адрес рутор? Какое зеркало рутор? Не работает rutor.org и зеркала? Тогда наш торрент специально для вас. Rutor.in неофициальное зеркало rutor. В случае если у Вас заблокирован rutor или вдруг Вы не можете на него зайти, то Вы без труда сможете скачать бесплатно и без рекламы последние новинки кино, игр, сериалов и прочего у нас, на Rutor.in. Не нужно использовать прокси, чтобы зайти на рутор, достаточно воспользоваться нашим ресурсом. Все новые фильмы, игры, сериалы, книги и музыка за 2013 и 2014 годы через торрент бесплатно. Скачивайте фильмы в хорошем качестве, игры для пк, xbox, playstation без регистрации. У нас вы найдете новые Зарубежные сериалы и Русские сериалы 2013, 2014, 2015 годов. Оставайтесь с нами, качайте любимые фильмы, игры, сериалы, книги и музыку.