img image001 image001 image001 image001 image001 image001 image001 image001 image001 image001 image001 image001 image001 image001 image001

Planets Sun Sun Sun
Статистика раздачи
Автор: Nickolas3434 | Размер: 1.46 ГБ | Добавлен: 09 апр 2014
Раздают: 120    Качают: 70
Скачать торрент
Скачать торрент
Описание торрента

СообщениеДобавлено: 09 апр 2014 

Страна: СССР, Польша
Производство: Одесская киностудия, Студия Фильмов Зебра

Жанр: комедия
Год выпуска: 1989
Продолжительность: 01:43:46

Перевод: не требуется
Оригинальная аудиодорожка: русский
Cубтитры: русский

Режиссер: Юлиуш Махульский / Juliusz Machulski

В ролях:
Ежи Штур / Jerzy Stuhr (Джонни Поллак), Владимир Головин (Микола Ничипорук), Николай Караченцов ("Япончик"), Галина Петрова (товарищ Клара Глушко), Елизавета Махульская / Liza Machulska (лейтенант Афродита Переплетчикова), Олег Шкловский (старший лейтенант Жорж Переплетчиков), Виктор Степанов (начальник УГРО Петро Мусиевич Кривонощенко), Василий Мищенко (Костя), Всеволод Сафонов (профессор Бабочкин), Владимир Белоусов (корреспондент газеты "Моряк"), Виталий Шаповалов (швейцар), Семен Крупник (профессор психиатрии), Валерий Барда-Скляренко (администратор гостиницы), Никита Высоцкий (любитель джаза, играющий на банджо), Нина Тер-Осипян (бабушка-армянка)...

Описание:
20-е годы. В Америке сухой закон. Подпольные торговцы спиртным, которые понесли убытки из-за предательства некоего Микк Нича — Микиты Ничипорука, решают ему отомстить.
В поисках своей жертвы наемный убийца прибывает в Одессу, где Ничипорук организовал самогонный бизнес. И тут у киллера возникают непредвиденные трудности. Одесса — это вам не Америка!..





Исходник: HDTV 1080i
Тип релиза: HDTVRip
Контейнер: AVI

Видео: MPEG4, XviD, 720x432 (1.667:1), 25.000 fps, 1613 Kbps, 0.207 bit/pixel
Аудио 1: AC-3, 48.0 KHz, 2 ch, 192 Kbps, CBR
Аудио 2: AC-3, 48.0 KHz, 2 ch, 192 Kbps, CBR
Субтитры: SoftSub (srt)

Раздача от:
Общее
Полное имя : Dezha.vyu.1989.HDTVRip_[New-team]_by_AVP_Studio.avi
Формат : AVI
Формат/Информация : Audio Video Interleave
Размер файла : 1,46 Гбайт
Продолжительность : 1 ч. 44 м.
Общий поток : 2010 Кбит/сек
Программа кодирования : VirtualDubModRus 1.5.10.2 (build 2542/release)
Библиотека кодирования : VirtualDubMod build 2542/release

Видео
Идентификатор : 0
Формат : MPEG-4 Visual
Профиль формата : Advanced Simple@L5
Параметр BVOP формата : 1
Параметр QPel формата : Нет
Параметр GMC формата : Без точки перехода
Параметр матрицы формата : Выборочная
Идентификатор кодека : XVID
Идентификатор кодека/Подсказка : XviD
Продолжительность : 1 ч. 44 м.
Битрейт : 1613 Кбит/сек
Ширина : 720 пикселей
Высота : 432 пикселя
Соотношение сторон : 1,667
Частота кадров : 25,000 кадров/сек
Цветовое пространство : YUV
Субдискретизация насыщенности : 4:2:0
Битовая глубина : 8 бит
Тип развёртки : Прогрессивная
Метод сжатия : С потерями
Бит/(Пиксели*Кадры) : 0.207
Размер потока : 1,17 Гбайт (80%)
Библиотека кодирования : XviD 73

Аудио #1
Идентификатор : 1
Формат : AC-3
Формат/Информация : Audio Coding 3
Расширение режима : CM (complete main)
Параметр Endianness формата : Big
Идентификатор кодека : 2000
Продолжительность : 1 ч. 43 м.
Вид битрейта : Постоянный
Битрейт : 192 Кбит/сек
Каналы : 2 канала
Расположение каналов : Front: L R
Частота : 48,0 КГц
Битовая глубина : 16 бит
Метод сжатия : С потерями
Размер потока : 142 Мбайт (9%)
Выравнивание : Разделение по промежуткам
Продолжительность промежутка : 40 мс. (1,01 видеокадр)
Время предзагрузки промежутка : 500 мс.

Аудио #2
Идентификатор : 2
Формат : AC-3
Формат/Информация : Audio Coding 3
Расширение режима : CM (complete main)
Параметр Endianness формата : Big
Идентификатор кодека : 2000
Продолжительность : 1 ч. 44 м.
Вид битрейта : Постоянный
Битрейт : 192 Кбит/сек
Каналы : 2 канала
Расположение каналов : Front: L R
Частота : 48,0 КГц
Битовая глубина : 16 бит
Метод сжатия : С потерями
Размер потока : 143 Мбайт (10%)
Выравнивание : Разделение по промежуткам
Продолжительность промежутка : 40 мс. (1,00 видеокадр)
Время предзагрузки промежутка : 500 мс





   Похожие торренты   Торрент   Размер 
В этой теме нет новых непрочитанных сообщений. Дежа вю (1989) HDTVRip-AVC от New-Team

119 | 47

2.19 ГБ

В этой теме нет новых непрочитанных сообщений. Дежа вю (1989) HDTVRip от New-Team

71 | 39

745.22 МБ

В этой теме нет новых непрочитанных сообщений. Дежа Вю / Deja Vu (1989) HDTVRip-AVC

282 | 18

2.8 ГБ

В этой теме нет новых непрочитанных сообщений. Дежа Вю (1989) DVDRip от MediaClub | КПК

411 | 39

471.18 МБ

В этой теме нет новых непрочитанных сообщений. Дежа вю / Deja Vu (2006) HDTVRip | D, A

418 | 51

2.16 ГБ

В этой теме нет новых непрочитанных сообщений. Дежа вю / Deja Vu (2006) HDTVRip от Dalemake | Open Matte | D

445 | 22

1.46 ГБ

В этой теме нет новых непрочитанных сообщений. К-9: Собачья работа / K-9 (1989) HDTVRip (720p) от NOLIMITS-TEAM

14 | 4

2.19 ГБ




Вы не можете начинать темы
Вы не можете отвечать на сообщения
Вы не можете редактировать свои сообщения
Вы не можете удалять свои сообщения
Вы не можете добавлять вложения

Перейти:  
Для Мосгорсуда, Роскомнадзора и рекламодателей: mosgorsud-torrent[собачка]yandex.ru
 Вход
ppkBB3cker v.2 © 2008-2014 @ PPK
[ Time : 0.179s | 15 Queries | GZIP : Off ]

Торрент трекер RUTOR.IN, Не можете зайти на rutor.org? Какой новый адрес рутор? Какое зеркало рутор? Не работает rutor.org и зеркала? Тогда наш торрент специально для вас. Rutor.in неофициальное зеркало rutor. В случае если у Вас заблокирован rutor или вдруг Вы не можете на него зайти, то Вы без труда сможете скачать бесплатно и без рекламы последние новинки кино, игр, сериалов и прочего у нас, на Rutor.in. Не нужно использовать прокси, чтобы зайти на рутор, достаточно воспользоваться нашим ресурсом. Все новые фильмы, игры, сериалы, книги и музыка за 2013 и 2014 годы через торрент бесплатно. Скачивайте фильмы в хорошем качестве, игры для пк, xbox, playstation без регистрации. У нас вы найдете новые Зарубежные сериалы и Русские сериалы 2013, 2014, 2015 годов. Оставайтесь с нами, качайте любимые фильмы, игры, сериалы, книги и музыку.