img image001 image001 image001 image001 image001 image001 image001 image001 image001 image001 image001 image001 image001 image001 image001

Planets Sun Sun Sun
Статистика раздачи
Автор: Nickolas3434 | Размер: 5.77 ГБ | Добавлен: 10 апр 2014
Раздают: 46    Качают: 26
Скачать торрент
Скачать торрент
Описание торрента

СообщениеДобавлено: 10 апр 2014 

Информация о фильме
Оригинальное название: Верные друзья
Год выпуска: 1954
Жанр: мелодрама, комедия
Режиссер: Михаил Калатозов
В ролях: Василий Меркурьев, Борис Чирков, Александр Борисов, Алексей Грибов, Лилия Гриценко, Людмила Шагалова, Алексей Покровский, Юрий Саранцев, Георгий Георгиу, Николай Сморчков, Михаил Пуговкин, Григорий Белов, Георгий Гумилевский, Елена Вольская, Вера Бурлакова, Людмила Геника-Чиркова, Анатолий Дудоров, Маргарита Жарова, Константин Нассонов, Александр Лебедев, Ольга Маркина, Владимир Лепко, Елена Савицкая, Клавдия Козлёнкова, Лариса Матвеенко, Елизавета Уварова, Юрий Леонидов, Василий Корнуков, Иван Косых, Пётр Любешкин, Георгий Бударов, Иван Рыжов, Николай Парфёнов, Владимир Андреев, Зоя Степанова, Иван Кузнецов, Сергей Юртайкин, Всеволод Санаев, Александр Жуков, Владимир Ратомский, Алевтина Румянцева

О фильме:
Когда-то давно на одной из московских окраин жили три товарища: Сашка-«кошачий парень», Борька — «чижик» и Васька — «индюк». Прошли годы. Чижик стал известным московским хирургом Чижовым, Сашка — профессором-животноводом Лапиным, Васька — академиком архитектуры Нестратовым, работающим на строительстве первых высоток столицы. Вспомнив данное когда-то друг другу обещание, верные друзья отправляются в плавание по реке на бревенчатом плоту. Для Лапина путешествие оказывается особенно счастливым: он встречает давно любимую и любящую его женщину.



Выпущено: СССР (Мосфильм)
Продолжительность: 01:40:29
Перевод: Оригинал

Файл
Кодек: x264
Качество: BDRip 1080p
Видео: 1488x1080, 7770 Kbps, 23.976 fps
Аудио: AC-3, 6 ch, 448 kbps (Rus)
Субтитры: нет

Общее
Уникальный идентификатор : 212361583065932204166437551213482838910 (0x9FC35A6A6CC87831AAE4FC1569078B7E)
Полное имя : Верные друзья.1954.BDRip.1080p.Rus.mkv
Формат : Matroska
Версия формата : Version 2
Размер файла : 5,77 Гбайт
Продолжительность : 1 ч. 40 м.
Общий поток : 8220 Кбит/сек
Название фильма : Верные друзья.1954
Дата кодирования : UTC 2014-04-09 14:51:17
Программа кодирования : mkvmerge v5.8.0 ('No Sleep / Pillow') built on Sep 2 2012 15:37:04
Библиотека кодирования : libebml v1.2.3 + libmatroska v1.3.0
Attachment : Yes

Видео
Идентификатор : 1
Формат : AVC
Формат/Информация : Advanced Video Codec
Профиль формата : High@L4.1
Параметр CABAC формата : Да
Параметр ReFrames формата : 4 кадра
Идентификатор кодека : V_MPEG4/ISO/AVC
Продолжительность : 1 ч. 40 м.
Битрейт : 7770 Кбит/сек
Ширина : 1488 пикселей
Высота : 1080 пикселей
Соотношение сторон : 1,378
Режим частоты кадров : Постоянный
Частота кадров : 23,976 кадра/сек
Цветовое пространство : YUV
Субдискретизация насыщенности : 4:2:0
Битовая глубина : 8 бит
Тип развёртки : Прогрессивная
Бит/(Пиксели*Кадры) : 0.202
Размер потока : 5,34 Гбайт (93%)
Заголовок : Rip by Boriy
Библиотека кодирования : x264 core 142 r2409 d6b4e63
Настройки программы : cabac=1 / ref=4 / deblock=1:-3:-3 / analyse=0x3:0x113 / me=umh / subme=11 / psy=1 / psy_rd=1.00:0.00 / mixed_ref=1 / me_range=32 / chroma_me=1 / trellis=2 / 8x8dct=1 / cqm=0 / deadzone=21,11 / fast_pskip=0 / chroma_qp_offset=-2 / threads=12 / lookahead_threads=1 / sliced_threads=0 / nr=0 / decimate=0 / interlaced=0 / bluray_compat=0 / constrained_intra=0 / bframes=6 / b_pyramid=2 / b_adapt=2 / b_bias=0 / direct=3 / weightb=1 / open_gop=0 / weightp=2 / keyint=240 / keyint_min=23 / scenecut=40 / intra_refresh=0 / rc=2pass / mbtree=0 / bitrate=7770 / ratetol=1.0 / qcomp=0.60 / qpmin=0 / qpmax=69 / qpstep=4 / cplxblur=20.0 / qblur=0.5 / ip_ratio=1.40 / pb_ratio=1.30 / aq=1:0.90
Язык : English
Default : Да
Forced : Нет

Аудио
Идентификатор : 2
Формат : AC-3
Формат/Информация : Audio Coding 3
Расширение режима : CM (complete main)
Параметр Endianness формата : Big
Идентификатор кодека : A_AC3
Продолжительность : 1 ч. 40 м.
Вид битрейта : Постоянный
Битрейт : 448 Кбит/сек
Каналы : 6 каналов
Расположение каналов : Front: L C R, Side: L R, LFE
Частота : 48,0 КГц
Битовая глубина : 16 бит
Метод сжатия : С потерями
Размер потока : 322 Мбайт (5%)
Заголовок : Оригинал
Язык : Russian
Default : Да
Forced : Нет

Меню
00:00:00.000 : :Chapter 1
00:04:01.241 : :Chapter 2
00:11:19.679 : :Chapter 3
00:17:51.070 : :Chapter 4
00:25:29.527 : :Chapter 5
00:32:31.950 : :Chapter 6
00:40:18.416 : :Chapter 7
00:50:31.153 : :Chapter 8
00:59:15.760 : :Chapter 9
01:06:54.010 : :Chapter 10
01:17:13.629 : :Chapter 11
01:25:56.901 : :Chapter 12
01:29:44.504 : :Chapter 13
01:35:05.491 : :Chapter 14
x264 [info]: frame I:767 Avg QP:16.65 size:142541
x264 [info]: frame P:29028 Avg QP:18.96 size: 82061
x264 [info]: frame B:114772 Avg QP:20.66 size: 29314



   Похожие торренты   Торрент   Размер 
В этой теме нет новых непрочитанных сообщений. Верные друзья (1954) BDRip 1080p от MediaClub

221 | 34

7.06 ГБ

В этой теме нет новых непрочитанных сообщений. Верные друзья (1954) BDRip-AVC от MediaClub

60 | 15

2.18 ГБ

В этой теме нет новых непрочитанных сообщений. Верные друзья (1954) BDRip-AVC от New-Team

54 | 15

1.46 ГБ

В этой теме нет новых непрочитанных сообщений. Верные друзья (1954) BDRip от HQ-ViDEO

184 | 110

1.46 ГБ

В этой теме нет новых непрочитанных сообщений. Верные друзья (1954) BDRip от New-Team

86 | 33

1.46 ГБ

В этой теме нет новых непрочитанных сообщений. Верные друзья (1954) BDRip от New-Team

1375 | 111

744.67 МБ

В этой теме нет новых непрочитанных сообщений. Верные друзья (1954) BDRip 720p от New-Team

103 | 32

2.91 ГБ




Вы не можете начинать темы
Вы не можете отвечать на сообщения
Вы не можете редактировать свои сообщения
Вы не можете удалять свои сообщения
Вы не можете добавлять вложения

Перейти:  
Для Мосгорсуда, Роскомнадзора и рекламодателей: mosgorsud-torrent[собачка]yandex.ru
 Вход
ppkBB3cker v.2 © 2008-2014 @ PPK
[ Time : 0.025s | 14 Queries | GZIP : Off ]
CGP output time : 0.050s | 5 Queries | GZIP : Off

Торрент трекер RUTOR.IN, Не можете зайти на rutor.org? Какой новый адрес рутор? Какое зеркало рутор? Не работает rutor.org и зеркала? Тогда наш торрент специально для вас. Rutor.in неофициальное зеркало rutor. В случае если у Вас заблокирован rutor или вдруг Вы не можете на него зайти, то Вы без труда сможете скачать бесплатно и без рекламы последние новинки кино, игр, сериалов и прочего у нас, на Rutor.in. Не нужно использовать прокси, чтобы зайти на рутор, достаточно воспользоваться нашим ресурсом. Все новые фильмы, игры, сериалы, книги и музыка за 2013 и 2014 годы через торрент бесплатно. Скачивайте фильмы в хорошем качестве, игры для пк, xbox, playstation без регистрации. У нас вы найдете новые Зарубежные сериалы и Русские сериалы 2013, 2014, 2015 годов. Оставайтесь с нами, качайте любимые фильмы, игры, сериалы, книги и музыку.