img image001 image001 image001 image001 image001 image001 image001 image001 image001 image001 image001 image001 image001 image001 image001

Planets Sun Sun Sun
Статистика раздачи
Автор: Nickolas3434 | Размер: 1.51 ГБ | Добавлен: 13 апр 2014
Раздают: 1792    Качают: 353
Скачать торрент
Скачать торрент
Описание торрента

СообщениеДобавлено: 13 апр 2014 

«Зло живёт по соседству»




Страна: Россия / Люксор, Про100 Фильм, Вершина

Жанр: ужасы, триллер, детектив
Год выпуска: 2013
Продолжительность: 01:32:29
Перевод: не требуется
Cубтитры: нет
Оригинальная аудиодорожка: русский

Режиссер: Святослав Подгаевский

В ролях: Дмитрий Ендальцев, Мария Фомина, Борис Полунин, Виктория Райкова, Юрий Филатов, Сергей Холмогоров, Ольга Приходько

Описание: Сиреневые Холмы, Владение 18 — адрес обычной многоэтажки на окраине города. Скоро здесь будет новый цветущий микрорайон, но пока вокруг царит девственное запустение. Сейчас цены на квартиры в этом доме так заманчиво низки… И продают их, оказывается, только по специальной благотворительной программе инвесторов! Когда ещё небогатым молодожёнам Свете и Максиму представится такой удивительный шанс переехать из крохотной коммуналки в собственную просторную квартиру?..
Но вскоре после новоселья они начинают понимать, что с новым домом что-то не так. Странные соседи, с которыми молодожёнам никак не удаётся поговорить, сторож, больше напоминающий надзирателя в концлагере, кошмарные сны и видения, которые совсем не похожи на игру воображения… Но самое ужасное — гости, навещающие их после переезда… Гости-призраки, рассказывающие о том, какой страшной смертью они умерли в этом доме. Удастся ли Свете и Максиму выбраться живыми из дьявольской западни или уже слишком поздно?



Качество: BDRip / Blu-ray 1080p
Формат: AVI

Видео: 720x304 (2.35:1), 24.000 fps, XViD, ~1875 kbps avg, 0.357 bit/pix
Аудио: Russian: 48 kHz, Dolby AC3, 6 ch, 448 kbps Const

Раздача от:
Общее
Полное имя : Vladenie.18.2013.O.BDRip_[New-team]_by_avproh.avi
Формат : AVI
Формат/Информация : Audio Video Interleave
Размер файла : 1,51 Гбайт
Продолжительность : 1 ч. 32 м.
Общий поток : 2332 Кбит/сек
Программа кодирования : VirtualDubModRus 1.5.10.2 (build 2542/release)
Библиотека кодирования : VirtualDubMod build 2542/release

Видео
Идентификатор : 0
Формат : MPEG-4 Visual
Профиль формата : Advanced Simple@L5
Параметр BVOP формата : 1
Параметр QPel формата : Нет
Параметр GMC формата : Без точки перехода
Параметр матрицы формата : Выборочная
Идентификатор кодека : XVID
Идентификатор кодека/Подсказка : XviD
Продолжительность : 1 ч. 32 м.
Битрейт : 1875 Кбит/сек
Ширина : 720 пикселей
Высота : 304 пикселя
Соотношение сторон : 2,35:1
Частота кадров : 24,000 кадра/сек
Цветовое пространство : YUV
Субдискретизация насыщенности : 4:2:0
Битовая глубина : 8 бит
Тип развёртки : Прогрессивная
Метод сжатия : С потерями
Бит/(Пиксели*Кадры) : 0.357
Размер потока : 1,21 Гбайт (80%)
Библиотека кодирования : XviD 73

Аудио
Идентификатор : 1
Формат : AC-3
Формат/Информация : Audio Coding 3
Расширение режима : CM (complete main)
Параметр Endianness формата : Big
Идентификатор кодека : 2000
Продолжительность : 1 ч. 32 м.
Вид битрейта : Постоянный
Битрейт : 448 Кбит/сек
Каналы : 6 каналов
Расположение каналов : Front: L C R, Side: L R, LFE
Частота : 48,0 КГц
Битовая глубина : 16 бит
Метод сжатия : С потерями
Размер потока : 296 Мбайт (19%)
Выравнивание : Разделение по промежуткам
Продолжительность промежутка : 42 мс. (1,00 видеокадр)
Время предзагрузки промежутка : 500 мс.





   Похожие торренты   Торрент   Размер 
В этой теме нет новых непрочитанных сообщений. Владение 18 (2013) BDRip-AVC от New-Team | лицензия

1214 | 356

1.46 ГБ

В этой теме нет новых непрочитанных сообщений. Владение 18 (2013) BDRip-AVC от New-Team | Лицензия

116 | 31

744.23 МБ

В этой теме нет новых непрочитанных сообщений. Владение 18 (2013) DVD9 R5 от New-Team | лицензия

46 | 33

4.84 ГБ

В этой теме нет новых непрочитанных сообщений. Владение 18 (2013) BDRemux 1080p от New-Team | лицензия

219 | 110

19.41 ГБ

В этой теме нет новых непрочитанных сообщений. Владение 18 (2013) Blu-ray 1080p от HDCLUB и New-Team | лицензия

68 | 52

20.53 ГБ

В этой теме нет новых непрочитанных сообщений. Владение 18 (2013) BDRip-AVC от HQCLUB | Лицензия

101 | 25

1.99 ГБ

В этой теме нет новых непрочитанных сообщений. Владение 18 (2013) BDRip от HQCLUB | Лицензия

315 | 55

1.45 ГБ




Вы не можете начинать темы
Вы не можете отвечать на сообщения
Вы не можете редактировать свои сообщения
Вы не можете удалять свои сообщения
Вы не можете добавлять вложения

Перейти:  
Для Мосгорсуда, Роскомнадзора и рекламодателей: mosgorsud-torrent[собачка]yandex.ru
 Вход
ppkBB3cker v.2 © 2008-2014 @ PPK
[ Time : 0.025s | 16 Queries | GZIP : Off ]

Торрент трекер RUTOR.IN, Не можете зайти на rutor.org? Какой новый адрес рутор? Какое зеркало рутор? Не работает rutor.org и зеркала? Тогда наш торрент специально для вас. Rutor.in неофициальное зеркало rutor. В случае если у Вас заблокирован rutor или вдруг Вы не можете на него зайти, то Вы без труда сможете скачать бесплатно и без рекламы последние новинки кино, игр, сериалов и прочего у нас, на Rutor.in. Не нужно использовать прокси, чтобы зайти на рутор, достаточно воспользоваться нашим ресурсом. Все новые фильмы, игры, сериалы, книги и музыка за 2013 и 2014 годы через торрент бесплатно. Скачивайте фильмы в хорошем качестве, игры для пк, xbox, playstation без регистрации. У нас вы найдете новые Зарубежные сериалы и Русские сериалы 2013, 2014, 2015 годов. Оставайтесь с нами, качайте любимые фильмы, игры, сериалы, книги и музыку.