img image001 image001 image001 image001 image001 image001 image001 image001 image001 image001 image001 image001 image001 image001 image001

Planets Sun Sun Sun
Статистика раздачи
Автор: Nickolas3434 | Размер: 7.01 ГБ | Добавлен: 13 апр 2014
Раздают: 503    Качают: 155
Скачать торрент
Скачать торрент
Описание торрента

СообщениеДобавлено: 13 апр 2014 

Информация о фильме
Оригинальное название: Владение 18
Год выпуска: 2013
Жанр: Ужасы, детектив, триллер
Режиссер: Святослав Подгаевский
В ролях: Дмитрий Ендальцев, Мария Фомина, Борис Полунин, Виктория Райкова, Юрий Филатов, Сергей Холмогоров, Ольга Приходько

Описание: Сиреневые Холмы, Владение 18 - адрес обычной многоэтажки на окраине города. Скоро здесь будет новый цветущий микрорайон, но пока вокруг царит девственное запустение. Сейчас цены на квартиры в этом доме так заманчиво низки... И продают их, оказывается, только по специальной благотворительной программе инвесторов! Когда ещё небогатым молодожёнам Свете и Максиму представится такой удивительный шанс переехать из крохотной коммуналки в собственную просторную квартиру?..



Страна: Россия
Студия: Люксор, Про100 Фильм, Вершина
Продолжительность: 01:32:29

Файл
Качество: BDRip 1080p
Видео: MPEG-4 AVC, 8700 Кбит/с, 1920x804, 24.000 кадр/с
Аудио #1: Русский (DTS, 6 ch, 1509 Кбит/с)
Аудио #2: Русский (AC3, 6 ch, 640 Кбит/с)

Семпл



Общее
Уникальный идентификатор : 245888940000390429255879490844852226107 (0xB8FC7CBCAE419FD08A7B94F3935C083B)
Полное имя : D:Mои раздачиVladenie-18.2013.BDRip.1080p-MediaClub.mkv
Формат : Matroska
Версия формата : Version 4 / Version 2
Размер файла : 7,01 Гбайт
Продолжительность : 1 ч. 32 м.
Общий поток : 10,8 Мбит/сек
Название фильма : -=MediaClub-kaspr=-
Дата кодирования : UTC 2014-04-12 05:13:19
Программа кодирования : mkvmerge v6.1.0 ('Old Devil') built on Mar 4 2013 09:10:42
Библиотека кодирования : libebml v1.3.0 + libmatroska v1.4.0

Видео
Идентификатор : 1
Формат : AVC
Формат/Информация : Advanced Video Codec
Профиль формата : High@L4.1
Параметр CABAC формата : Да
Параметр ReFrames формата : 5 кадров
Идентификатор кодека : V_MPEG4/ISO/AVC
Продолжительность : 1 ч. 32 м.
Битрейт : 8700 Кбит/сек
Ширина : 1920 пикселей
Высота : 804 пикселя
Соотношение сторон : 2,40:1
Режим частоты кадров : Постоянный
Частота кадров : 24,000 кадра/сек
Цветовое пространство : YUV
Субдискретизация насыщенности : 4:2:0
Битовая глубина : 8 бит
Тип развёртки : Прогрессивная
Бит/(Пиксели*Кадры) : 0.235
Размер потока : 5,48 Гбайт (78%)
Заголовок : -=MediaClub-kaspr=-
Библиотека кодирования : x264 core 142 r2409+42 04be48a tMod [8-bit@4:2:0 X86_64]
Настройки программы : cabac=1 / ref=5 / deblock=1:-3:-3 / analyse=0x3:0x113 / me=umh / subme=11 / psy=1 / fade_compensate=0.00 / psy_rd=1.00:0.20 / mixed_ref=1 / me_range=32 / chroma_me=1 / trellis=2 / 8x8dct=1 / cqm=0 / deadzone=21,11 / fast_pskip=0 / chroma_qp_offset=-3 / threads=12 / lookahead_threads=2 / sliced_threads=0 / nr=0 / decimate=0 / interlaced=0 / bluray_compat=0 / constrained_intra=0 / fgo=0 / bframes=8 / b_pyramid=2 / b_adapt=2 / b_bias=0 / direct=3 / weightb=1 / open_gop=0 / weightp=2 / keyint=240 / keyint_min=24 / scenecut=40 / intra_refresh=0 / rc=2pass / mbtree=0 / bitrate=8700 / ratetol=1.0 / qcomp=0.60 / qpmin=0:0:0 / qpmax=69:69:69 / qpstep=4 / cplxblur=20.0 / qblur=0.5 / ip_ratio=1.40 / pb_ratio=1.30 / aq=2:0.80 / aq-sensitivity=10.00 / aq-factor=1.00:1.00:1.00 / aq2=0 / aq3=0
Default : Да
Forced : Да

Аудио #1
Идентификатор : 2
Формат : DTS
Формат/Информация : Digital Theater Systems
Режим : 16
Параметр Endianness формата : Big
Идентификатор кодека : A_DTS
Продолжительность : 1 ч. 32 м.
Вид битрейта : Постоянный
Битрейт : 1509 Кбит/сек
Каналы : 6 каналов
Расположение каналов : Front: L C R, Side: L R, LFE
Частота : 48,0 КГц
Битовая глубина : 16 бит
Метод сжатия : С потерями
Размер потока : 999 Мбайт (14%)
Заголовок : DTS
Язык : Russian
Default : Да
Forced : Да

Аудио #2
Идентификатор : 3
Формат : AC-3
Формат/Информация : Audio Coding 3
Расширение режима : CM (complete main)
Параметр Endianness формата : Big
Идентификатор кодека : A_AC3
Продолжительность : 1 ч. 32 м.
Вид битрейта : Постоянный
Битрейт : 640 Кбит/сек
Каналы : 6 каналов
Расположение каналов : Front: L C R, Side: L R, LFE
Частота : 48,0 КГц
Битовая глубина : 16 бит
Метод сжатия : С потерями
Размер потока : 424 Мбайт (6%)
Заголовок : AC3
Язык : Russian
Default : Нет
Forced : Нет

Меню
00:00:00.000 : en:Chapter 01
00:00:04.000 : en:Chapter 02
00:10:10.458 : en:Chapter 03
00:19:36.416 : en:Chapter 04
00:30:53.500 : en:Chapter 05
00:40:34.958 : en:Chapter 06
00:49:58.541 : en:Chapter 07
01:07:22.791 : en:Chapter 08
01:24:06.416 : en:Chapter 09


Релиз: |



   Похожие торренты   Торрент   Размер 
В этой теме нет новых непрочитанных сообщений. Владение 18 (2013) Blu-ray 1080p от HDCLUB и New-Team | лицензия

68 | 52

20.53 ГБ

В этой теме нет новых непрочитанных сообщений. Владение 18 (2013) BDRemux 1080p от New-Team | лицензия

219 | 110

19.41 ГБ

В этой теме нет новых непрочитанных сообщений. Владение 18 (2013) BDRip от New-Team | лицензия

1792 | 353

1.51 ГБ

В этой теме нет новых непрочитанных сообщений. Владение 18 (2013) BDRip-AVC от New-Team | лицензия

1214 | 356

1.46 ГБ

В этой теме нет новых непрочитанных сообщений. Владение 18 (2013) BDRip-AVC от HELLYWOOD | Лицензия

672 | 118

1.46 ГБ

В этой теме нет новых непрочитанных сообщений. Владение 18 (2013) BDRip от HQCLUB | Лицензия

315 | 55

1.45 ГБ

В этой теме нет новых непрочитанных сообщений. Владение 18 (2013) BDRip-AVC от HQCLUB | Лицензия

101 | 25

1.99 ГБ




Вы не можете начинать темы
Вы не можете отвечать на сообщения
Вы не можете редактировать свои сообщения
Вы не можете удалять свои сообщения
Вы не можете добавлять вложения

Перейти:  
Для Мосгорсуда, Роскомнадзора и рекламодателей: mosgorsud-torrent[собачка]yandex.ru
 Вход
ppkBB3cker v.2 © 2008-2014 @ PPK
[ Time : 0.062s | 15 Queries | GZIP : Off ]

Торрент трекер RUTOR.IN, Не можете зайти на rutor.org? Какой новый адрес рутор? Какое зеркало рутор? Не работает rutor.org и зеркала? Тогда наш торрент специально для вас. Rutor.in неофициальное зеркало rutor. В случае если у Вас заблокирован rutor или вдруг Вы не можете на него зайти, то Вы без труда сможете скачать бесплатно и без рекламы последние новинки кино, игр, сериалов и прочего у нас, на Rutor.in. Не нужно использовать прокси, чтобы зайти на рутор, достаточно воспользоваться нашим ресурсом. Все новые фильмы, игры, сериалы, книги и музыка за 2013 и 2014 годы через торрент бесплатно. Скачивайте фильмы в хорошем качестве, игры для пк, xbox, playstation без регистрации. У нас вы найдете новые Зарубежные сериалы и Русские сериалы 2013, 2014, 2015 годов. Оставайтесь с нами, качайте любимые фильмы, игры, сериалы, книги и музыку.