img image001 image001 image001 image001 image001 image001 image001 image001 image001 image001 image001 image001 image001 image001 image001

Planets Sun Sun Sun
Статистика раздачи
Автор: Nickolas3434 | Размер: 2.72 ГБ | Добавлен: 14 апр 2014
Раздают: 1112    Качают: 146
Скачать торрент
Скачать торрент
Описание торрента

СообщениеДобавлено: 14 апр 2014 

Информация о фильме
Название: Владение 18
Год выхода: 2013
Жанр: ужасы, триллер, детектив
Режиссер: Святослав Подгаевский
В ролях: Дмитрий Ендальцев, Мария Фомина, Борис Полунин, Виктория Райкова, Юрий Филатов, Сергей Холмогоров, Ольга Приходько

О фильме: Сиреневые Холмы, Владение 18 — адрес обычной многоэтажки на окраине города. Скоро здесь будет новый цветущий микрорайон, но пока вокруг царит девственное запустение. Сейчас цены на квартиры в этом доме так заманчиво низки… И продают их, оказывается, только по специальной благотворительной программе инвесторов! Когда ещё небогатым молодожёнам Свете и Максиму представится такой удивительный шанс переехать из крохотной коммуналки в собственную просторную квартиру?..

Но вскоре после новоселья они начинают понимать, что с новым домом что-то не так. Странные соседи, с которыми молодожёнам никак не удаётся поговорить, сторож, больше напоминающий надзирателя в концлагере, кошмарные сны и видения, которые совсем не похожи на игру воображения… Но самое ужасное — гости, навещающие их после переезда… Гости-призраки, рассказывающие о том, какой страшной смертью они умерли в этом доме. Удастся ли Свете и Максиму выбраться живыми из дьявольской западни или уже слишком поздно?



Выпущено: Люксор
Продолжительность: 01:32:28
Перевод: Оригинал (лицензия)

Файл
Кодек: x264
Качество: BDRip (источник: Blu-ray Disc)
Видео: 1280x536 (2,40:1), 24 fps, 3760 kbps
Аудио: AC-3, 6 ch, 448 kbps
Скачать: сэмпл

Скриншоты

Общее
Уникальный идентификатор : 247233467586294342163415308084166873847 (0xB9FF6F10A8281105A74B2E6A418952F7)
Полное имя : Vladeniye.18.2013.BDRip.720p.Rus.mkv
Формат : Matroska
Версия формата : Version 2
Размер файла : 2,72 Гбайт
Продолжительность : 1 ч. 32 м.
Общий поток : 4213 Кбит/сек
Название фильма : Владение 18 (2013)
Дата кодирования : UTC 2014-04-12 22:09:03
Программа кодирования : mkvmerge v5.8.0 ('No Sleep / Pillow') built on Sep 2 2012 15:37:04
Библиотека кодирования : libebml v1.2.3 + libmatroska v1.3.0

Видео
Идентификатор : 1
Формат : AVC
Формат/Информация : Advanced Video Codec
Профиль формата : High@L4.1
Параметр CABAC формата : Да
Параметр ReFrames формата : 11 кадров
Идентификатор кодека : V_MPEG4/ISO/AVC
Продолжительность : 1 ч. 32 м.
Битрейт : 3764 Кбит/сек
Ширина : 1280 пикселей
Высота : 536 пикселей
Соотношение сторон : 2,40:1
Режим частоты кадров : Постоянный
Частота кадров : 24,000 кадра/сек
Цветовое пространство : YUV
Субдискретизация насыщенности : 4:2:0
Битовая глубина : 8 бит
Тип развёртки : Прогрессивная
Бит/(Пиксели*Кадры) : 0.229
Размер потока : 2,38 Гбайт (87%)
Заголовок : Release by AlexKa
Библиотека кодирования : x264 core 142 r2409 d6b4e63
Настройки программы : cabac=1 / ref=11 / deblock=1:-3:-3 / analyse=0x3:0x133 / me=umh / subme=11 / psy=1 / psy_rd=1.00:0.00 / mixed_ref=1 / me_range=32 / chroma_me=1 / trellis=2 / 8x8dct=1 / cqm=0 / deadzone=21,11 / fast_pskip=0 / chroma_qp_offset=-2 / threads=12 / lookahead_threads=2 / sliced_threads=0 / nr=0 / decimate=1 / interlaced=0 / bluray_compat=0 / constrained_intra=0 / bframes=9 / b_pyramid=2 / b_adapt=2 / b_bias=0 / direct=3 / weightb=1 / open_gop=0 / weightp=2 / keyint=240 / keyint_min=24 / scenecut=40 / intra_refresh=0 / rc=2pass / mbtree=0 / bitrate=3764 / ratetol=1.0 / qcomp=0.60 / qpmin=0 / qpmax=69 / qpstep=4 / cplxblur=20.0 / qblur=0.5 / ip_ratio=1.40 / pb_ratio=1.30 / aq=1:1.00
Язык : Russian

Аудио
Идентификатор : 2
Формат : AC-3
Формат/Информация : Audio Coding 3
Расширение режима : CM (complete main)
Параметр Endianness формата : Big
Идентификатор кодека : A_AC3
Продолжительность : 1 ч. 32 м.
Вид битрейта : Постоянный
Битрейт : 448 Кбит/сек
Каналы : 6 каналов
Расположение каналов : Front: L C R, Side: L R, LFE
Частота : 48,0 КГц
Битовая глубина : 16 бит
Метод сжатия : С потерями
Размер потока : 296 Мбайт (11%)
Заголовок : Rus
Язык : Russian

Меню
00:00:00.000 : :Chapter 01
00:00:04.000 : :Chapter 02
00:10:10.458 : :Chapter 03
00:19:36.416 : :Chapter 04
00:30:53.500 : :Chapter 05
00:40:34.958 : :Chapter 06
00:49:58.541 : :Chapter 07
01:07:22.791 : :Chapter 08
01:24:06.416 : :Chapter 09
x264 [info]: frame I:780 Avg QP:12.34 size: 82613
x264 [info]: frame P:27365 Avg QP:14.37 size: 34321
x264 [info]: frame B:105019 Avg QP:16.40 size: 15299
x264 [info]: consecutive B-frames: 1.6% 2.7% 8.6% 10.9% 15.0% 45.6% 8.3% 1.2% 5.0% 1.2%



   Похожие торренты   Торрент   Размер 
В этой теме нет новых непрочитанных сообщений. Владение 18 (2013) BDRip 720p от Leonardo and Scarabey | Лицензия

272 | 32

1.89 ГБ

В этой теме нет новых непрочитанных сообщений. Владение 18 (2013) BDRip от HQCLUB | Лицензия

315 | 55

1.45 ГБ

В этой теме нет новых непрочитанных сообщений. Владение 18 (2013) BDRip-AVC от New-Team | Лицензия

116 | 31

744.23 МБ

В этой теме нет новых непрочитанных сообщений. Владение 18 (2013) BDRip-AVC от HELLYWOOD | Лицензия

287 | 59

1.46 ГБ

В этой теме нет новых непрочитанных сообщений. Владение 18 (2013) BDRip-AVC от HQCLUB | Лицензия

101 | 25

1.99 ГБ

В этой теме нет новых непрочитанных сообщений. Владение 18 (2013) BDRip от New-Team | лицензия

1792 | 354

1.51 ГБ

В этой теме нет новых непрочитанных сообщений. Владение 18 (2013) BDRip-AVC от New-Team | лицензия

1215 | 357

1.46 ГБ




Вы не можете начинать темы
Вы не можете отвечать на сообщения
Вы не можете редактировать свои сообщения
Вы не можете удалять свои сообщения
Вы не можете добавлять вложения

Перейти:  
Для Мосгорсуда, Роскомнадзора и рекламодателей: mosgorsud-torrent[собачка]yandex.ru
 Вход
ppkBB3cker v.2 © 2008-2014 @ PPK
[ Time : 0.039s | 17 Queries | GZIP : Off ]

cron