img image001 image001 image001 image001 image001 image001 image001 image001 image001 image001 image001 image001 image001 image001 image001

Planets Sun Sun Sun
Статистика раздачи
Автор: Nickolas3434 | Размер: 24.97 ГБ | Добавлен: 14 апр 2014
Раздают: 59    Качают: 55
Скачать торрент
Скачать торрент
Описание торрента

СообщениеДобавлено: 14 апр 2014 

Информация о фильме
Название: 1210 / Тысяча двести десять
Год выхода: 2012
Жанр: Драма
Режиссер: Арсений Гончуков
В ролях: Роберт Вааб, Александр Сухинин, Виктор Немец, Юлия Дегтяренко, Александр Гавриков, Елизавета Лукьянова, Владимир Шинов, Артем Кобзев, Николай Бутенин, Елена Елесина

О фильме:
"1210" - это пронзительная история про "маленького человека", который пытается добиться справедливости от государства.
Николай Баранов, ветеран забытой афганской войны, требует положенную «ветеранскую» надбавку к пенсии - тысячу двести десять рублей. Но надбавку отменили.
Оскорбленное достоинство, чувство вины и безысходности толкают офицера на страшный поступок...
Фильм «1210» основан на реальных событиях. Равнодушие государства и общества, презрение к пожилым людям, к собственной истории, месть и даже бунт – все эти темы затронуты в жесткой и непримиримой истории, героя которой вполне можно назвать «героем нашего времени».



Доп. информация: Награды фильма "1210":
- Приз в номинации "Начало". Национальная премия "Страна", г. Москва, 2013 г.;
- Фестиваль военно-патриотического кино "Волоколамский рубеж" (г. Волоколамск), 2013 г., Специальный приз жюри;
- Приз "Анне" фильму "1210" "За лучшее исполнение главной мужской роли". VI Чебоксарский международный кинофестиваль, г. Чебоксары, 2013 г.
- Приз Серебряный Жан-Люк "Маленький солдат" - за лучший фильм о войне". Четвертый международный фестиваль авторского кино "Киноликбез-4", г. Барнаул;
- Диплом "За лучшую премьеру в киноклубе "Трибуна". Департамент культуры г. Москва, ГБУК "Московское кино", г. Москва, 2012 г.;

Официальный сайт

Страна: Россия
Студия: Арсений Гончуков
Продолжительность: 01:12:57
Перевод: Оригинал

Файл
Кодек: H264
Качество: 1080p
Видео: 1920x1080, 16:9, 25 fps, 50 Mbps
Звук: AAC, 2 ch, 48 kHz, 192 kbps
Субтитры: нет

Семпл

General
Complete name : C:UsersADesktop20121210_FILM_A.GONCHUKOV_(2012)_1080p_HD_25.mp4
Format : MPEG-4
Format profile : Base Media / Version 2
Codec ID : mp42
File size : 25.0 GiB
Duration : 1h 12mn
Overall bit rate : 49.0 Mbps
Encoded date : UTC 2014-04-10 22:52:38
Tagged date : UTC 2014-04-10 23:29:48
©TIM : 00:00:00:00
©TSC : 25
©TSZ : 1

Video
ID : 1
Format : AVC
Format/Info : Advanced Video Codec
Format profile : Main@L4.2
Format settings, CABAC : Yes
Format settings, ReFrames : 3 frames
Format settings, GOP : M=4, N=25
Codec ID : avc1
Codec ID/Info : Advanced Video Coding
Duration : 1h 12mn
Bit rate mode : Constant
Bit rate : 50.0 Mbps
Width : 1 920 pixels
Height : 1 080 pixels
Display aspect ratio : 16:9
Frame rate mode : Variable
Frame rate : 25.000 fps
Minimum frame rate : 25.000 fps
Maximum frame rate : 25.025 fps
Standard : PAL
Color space : YUV
Chroma subsampling : 4:2:0
Bit depth : 8 bits
Scan type : Progressive
Bits/(Pixel*Frame) : 0.965
Stream size : 24.9 GiB (100%)
Language : English
Encoded date : UTC 2014-04-10 22:52:39
Tagged date : UTC 2014-04-10 22:52:39

Audio
ID : 2
Format : AAC
Format/Info : Advanced Audio Codec
Format profile : LC
Codec ID : 40
Duration : 1h 12mn
Bit rate mode : Variable
Bit rate : 192 Kbps
Maximum bit rate : 293 Kbps
Channel(s) : 2 channels
Channel positions : Front: L R
Sampling rate : 48.0 KHz
Compression mode : Lossy
Stream size : 98.8 MiB (0%)
Language : English
Encoded date : UTC 2014-04-10 22:52:39
Tagged date : UTC 2014-04-10 22:52:39
Material_Duration : 4377188
Material_StreamSize : 103616405




Релиз от: Арсения Гончукова



   Похожие торренты   Торрент   Размер 
В этой теме нет новых непрочитанных сообщений. 1210 (2012) BDRip 1080p

73 | 43

4.35 ГБ

В этой теме нет новых непрочитанных сообщений. 1210 (2012) HDRip | КПК

171 | 39

642.54 МБ

В этой теме нет новых непрочитанных сообщений. 1210 (2012) BDRip

253 | 65

1.46 ГБ

В этой теме нет новых непрочитанных сообщений. 1210 (2012) BDRip-AVC

102 | 42

1.45 ГБ

В этой теме нет новых непрочитанных сообщений. 1210 (2012) BDRip 720p by msltel

73 | 19

2.63 ГБ

В этой теме нет новых непрочитанных сообщений. 1210 / Тысяча двести десять (Арсений Гончуков) [2012, драма] HDRip

163 | 17

1.82 ГБ

В этой теме нет новых непрочитанных сообщений. Risen 2: Тёмные воды / Risen 2: Dark Waters [1.0.1210.0 + fix DLC] (2012) PC | Патч

0 | 3

264.1 МБ




Вы не можете начинать темы
Вы не можете отвечать на сообщения
Вы не можете редактировать свои сообщения
Вы не можете удалять свои сообщения
Вы не можете добавлять вложения

Перейти:  
Для Мосгорсуда, Роскомнадзора и рекламодателей: mosgorsud-torrent[собачка]yandex.ru
 Вход
ppkBB3cker v.2 © 2008-2014 @ PPK
[ Time : 0.035s | 15 Queries | GZIP : Off ]

Торрент трекер RUTOR.IN, Не можете зайти на rutor.org? Какой новый адрес рутор? Какое зеркало рутор? Не работает rutor.org и зеркала? Тогда наш торрент специально для вас. Rutor.in неофициальное зеркало rutor. В случае если у Вас заблокирован rutor или вдруг Вы не можете на него зайти, то Вы без труда сможете скачать бесплатно и без рекламы последние новинки кино, игр, сериалов и прочего у нас, на Rutor.in. Не нужно использовать прокси, чтобы зайти на рутор, достаточно воспользоваться нашим ресурсом. Все новые фильмы, игры, сериалы, книги и музыка за 2013 и 2014 годы через торрент бесплатно. Скачивайте фильмы в хорошем качестве, игры для пк, xbox, playstation без регистрации. У нас вы найдете новые Зарубежные сериалы и Русские сериалы 2013, 2014, 2015 годов. Оставайтесь с нами, качайте любимые фильмы, игры, сериалы, книги и музыку.