img image001 image001 image001 image001 image001 image001 image001 image001 image001 image001 image001 image001 image001 image001 image001

Planets Sun Sun Sun
Статистика раздачи
Автор: Nickolas3434 | Размер: 1.57 ГБ | Добавлен: 14 апр 2014
Раздают: 423    Качают: 189
Скачать торрент
Скачать торрент
Описание торрента

СообщениеДобавлено: 14 апр 2014 

Информация о фильме

[Оригинальное название: Залётчики
Год выпуска: 2014
Жанр: Комедия
Выпущено: Россия, Вольга
Режиссер: Кирилл Кузин
В ролях: Илья Глинников, Вано Тугуши, Екатерина Кузнецова, Гоша Куценко, Вадим Галыгин, Виктор Вержбицкий, Алексей Горбунов, Юрий Цурило, Александр Веремюк, Карел Добры
О фильме: Комедия о том, как два незадачливых героя, один из которых мечтал стать летчиком, а другой актером, случайно получают шанс исполнить обе мечты разом на съемочной площадке нового фильма. Однако в первой же сцене они умудряются разбить вертолет спонсора, что сулит им массу проблем. Чтобы возместить ущерб приятели вынуждены пуститься во все тяжкие — попытаться ограбить олигарха, заработать натурой и даже попробовать угнать вертолет с американской авиабазы.


Файл

Качество: WEB-DLRip (AVC)
Видео: MPEG-4 AVC, 2650 Кбит/с, 1024x576, 25 кадр/с
Аудио: AC3, 2 ch, 192 Кбит/с
Размер: 1.57 ГБ
Продолжительность: 01:19:11
Язык: Русский

За исходник, большое спасибо BLUEBIRD
Общее
Уникальный идентификатор : 232362772816893321379756348504654362418 (0xAECF7134DD2DD353A79A6C253EFE3732)
Полное имя : D:ЗагрузкиZaljotchiki.2014.x264.WEB-DLRip(AVC).ExKinoRay.mkv
Формат : Matroska
Версия формата : Version 2
Размер файла : 1,57 Гбайт
Продолжительность : 1 ч. 19 м.
Общий поток : 2844 Кбит/сек
Название фильма : Залётчики.2014.Rip by: ollan
Дата кодирования : UTC 2014-04-13 23:40:52
Программа кодирования : mkvmerge v5.6.0 ('Kenya Kane') built on May 27 2012 16:44:04
Библиотека кодирования : libebml v1.2.3 + libmatroska v1.3.0

Видео
Идентификатор : 1
Формат : AVC
Формат/Информация : Advanced Video Codec
Профиль формата : High@L4.1
Параметр CABAC формата : Да
Параметр ReFrames формата : 9 кадров
Идентификатор кодека : V_MPEG4/ISO/AVC
Продолжительность : 1 ч. 19 м.
Битрейт : 2650 Кбит/сек
Ширина : 1024 пикселя
Высота : 576 пикселей
Соотношение сторон : 16:9
Режим частоты кадров : Постоянный
Частота кадров : 25,000 кадров/сек
Цветовое пространство : YUV
Субдискретизация насыщенности : 4:2:0
Битовая глубина : 8 бит
Тип развёртки : Прогрессивная
Бит/(Пиксели*Кадры) : 0.180
Размер потока : 1,44 Гбайт (91%)
Библиотека кодирования : x264 core 125 r2200 999b753
Настройки программы : cabac=1 / ref=9 / deblock=1:-3:-3 / analyse=0x3:0x133 / me=umh / subme=11 / psy=1 / psy_rd=1.00:0.10 / mixed_ref=1 / me_range=32 / chroma_me=1 / trellis=2 / 8x8dct=1 / cqm=0 / deadzone=21,11 / fast_pskip=0 / chroma_qp_offset=-3 / threads=12 / lookahead_threads=2 / sliced_threads=0 / nr=0 / decimate=0 / interlaced=0 / bluray_compat=0 / constrained_intra=0 / bframes=9 / b_pyramid=2 / b_adapt=2 / b_bias=0 / direct=3 / weightb=1 / open_gop=0 / weightp=2 / keyint=250 / keyint_min=25 / scenecut=40 / intra_refresh=0 / rc_lookahead=40 / rc=2pass / mbtree=1 / bitrate=2650 / ratetol=1.0 / qcomp=0.60 / qpmin=0 / qpmax=69 / qpstep=4 / cplxblur=20.0 / qblur=0.5 / ip_ratio=1.40 / aq=1:1.00
Язык : Russian
Default : Да
Forced : Нет

Аудио
Идентификатор : 2
Формат : AC-3
Формат/Информация : Audio Coding 3
Профиль формата : Dolby Digital
Расширение режима : CM (complete main)
Параметр Endianness формата : Big
Идентификатор кодека : A_AC3
Продолжительность : 1 ч. 19 м.
Вид битрейта : Постоянный
Битрейт : 192 Кбит/сек
Каналы : 2 канала
Расположение каналов : Front: L R
Частота : 48,0 КГц
Битовая глубина : 16 бит
Метод сжатия : С потерями
Размер потока : 109 Мбайт (7%)
Язык : Russian
Default : Да
Forced : Нет








Релиз от: Rip by:



   Похожие торренты   Торрент   Размер 
В этой теме нет новых непрочитанных сообщений. Залётчики (2014) WEB-DLRip | iTunes

409 | 65

1.37 ГБ

В этой теме нет новых непрочитанных сообщений. Залётчики (2014) WEB-DLRip | Лицензия

1153 | 585

1.36 ГБ

В этой теме нет новых непрочитанных сообщений. Залётчики (2014) WEB-DLRip | КПК от ImperiaFilm

754 | 27

270.75 МБ

В этой теме нет новых непрочитанных сообщений. Залётчики (2014) WEB-DLRip от ivandubskoj

637 | 43

1.37 ГБ

В этой теме нет новых непрочитанных сообщений. Залётчики (2014) WEBRip

6032 | 1163

1.37 ГБ

В этой теме нет новых непрочитанных сообщений. Залётчики (2014) WEB-Rip 720p

696 | 300

2.6 ГБ

В этой теме нет новых непрочитанных сообщений. Залётчики (2014) WEBRip

971 | 160

700.06 МБ




Вы не можете начинать темы
Вы не можете отвечать на сообщения
Вы не можете редактировать свои сообщения
Вы не можете удалять свои сообщения
Вы не можете добавлять вложения

Перейти:  
Для Мосгорсуда, Роскомнадзора и рекламодателей: mosgorsud-torrent[собачка]yandex.ru
 Вход
ppkBB3cker v.2 © 2008-2014 @ PPK
[ Time : 0.041s | 16 Queries | GZIP : Off ]

Торрент трекер RUTOR.IN, Не можете зайти на rutor.org? Какой новый адрес рутор? Какое зеркало рутор? Не работает rutor.org и зеркала? Тогда наш торрент специально для вас. Rutor.in неофициальное зеркало rutor. В случае если у Вас заблокирован rutor или вдруг Вы не можете на него зайти, то Вы без труда сможете скачать бесплатно и без рекламы последние новинки кино, игр, сериалов и прочего у нас, на Rutor.in. Не нужно использовать прокси, чтобы зайти на рутор, достаточно воспользоваться нашим ресурсом. Все новые фильмы, игры, сериалы, книги и музыка за 2013 и 2014 годы через торрент бесплатно. Скачивайте фильмы в хорошем качестве, игры для пк, xbox, playstation без регистрации. У нас вы найдете новые Зарубежные сериалы и Русские сериалы 2013, 2014, 2015 годов. Оставайтесь с нами, качайте любимые фильмы, игры, сериалы, книги и музыку.