img image001 image001 image001 image001 image001 image001 image001 image001 image001 image001 image001 image001 image001 image001 image001

Planets Sun Sun Sun
Статистика раздачи
Автор: Nickolas3434 | Размер: 5.6 ГБ | Добавлен: 14 апр 2014
Раздают: 88    Качают: 44
Скачать торрент
Скачать торрент
Описание торрента

СообщениеДобавлено: 14 апр 2014 

Информация о фильме
Название: Дубровский
Год выхода: 2014
Жанр: Драма
Режиссер: Александр Вартанов, Кирилл Михановский
В ролях: Данила Козловский, Клавдия Коршунова, Юрий Цурило, Александр Мезенцев, Игорь Гордин, Дмитрий Поднозов, Елена Дудина, Евгений Вакунов, Артем Кобзев, Любовь Сергеева

О фильме:
Владимир Дубровский — успешный столичный юрист и завсегдатай модных клубов, Маша Троекурова — выпускница английского колледжа и нежная дочь… Хозяева собственных судеб, они едва ли похожи на героев Пушкина. Но внезапная ссора их отцов решительно меняет жизнь Владимира и Маши — они погружаются в реальность, где действуют совсем другие законы…


Страна: Россия
Студия: Твинди
Продолжительность: 02:10:27
Перевод: Не требуется

Рип от Outsider!

Файл
Кодек: x264
Качество: BDRip 720p
Видео: 1280x694, 1.85:1, ~4500 Kbps, 24 fps, crf
Звук 1: 48 kHz, DTS, 3/2 (L,C,R,l,r) + LFE ch, ~1536.00 kbps avg
Субтитры: None



x264 [info]: frame I:1214 Avg QP:15.86 size:106178
x264 [info]: frame P:43211 Avg QP:17.32 size: 45160
x264 [info]: frame B:143445 Avg QP:19.95 size: 17114
x264 [info]: consecutive B-frames: 2.7% 3.7% 8.3% 23.8% 20.5% 25.1% 9.5% 2.6% 3.9%
x264 [info]: mb I I16..4: 7.0% 75.6% 17.4%
x264 [info]: mb P I16..4: 2.2% 15.2% 1.8% P16..4: 31.0% 34.6% 10.5% 0.0% 0.0% skip: 4.6%
x264 [info]: mb B I16..4: 0.3% 1.8% 0.2% B16..8: 34.1% 19.7% 3.1% direct: 6.8% skip:33.9% L0:42.4% L1:44.5% BI:13.1%
x264 [info]: 8x8 transform intra:78.5% inter:64.4%
x264 [info]: direct mvs spatial:100.0% temporal:0.0%
x264 [info]: coded y,uvDC,uvAC intra: 79.0% 82.1% 58.7% inter: 25.2% 28.3% 9.5%
x264 [info]: i16 v,h,dc,p: 15% 25% 3% 57%
x264 [info]: i8 v,h,dc,ddl,ddr,vr,hd,vl,hu: 10% 7% 8% 10% 13% 13% 13% 13% 13%
x264 [info]: i4 v,h,dc,ddl,ddr,vr,hd,vl,hu: 15% 15% 6% 7% 13% 13% 11% 9% 10%
x264 [info]: i8c dc,h,v,p: 40% 23% 17% 20%
x264 [info]: Weighted P-Frames: Y:10.3% UV:8.5%
x264 [info]: ref P L0: 44.5% 9.1% 18.1% 7.3% 6.3% 4.6% 4.3% 2.6% 2.7% 0.5% 0.1%
x264 [info]: ref B L0: 73.2% 11.6% 5.8% 3.2% 2.4% 2.0% 1.2% 0.5%
x264 [info]: ref B L1: 93.0% 7.0%
x264 [info]: kb/s:4635.00
Format : Matroska
Format version : Version 4 / Version 2
File size : 5.60 GiB
Duration : 2h 10mn
Overall bit rate : 6 146 Kbps
Movie name : Release by Ousider
Encoded date : UTC 2014-04-14 04:19:37
Writing application : mkvmerge v6.8.0 ('Theme for Great Cities') 64bit built on Mar 2 2014 21:34:26
Writing library : libebml v1.3.0 + libmatroska v1.4.1

Video
ID : 1
Format : AVC
Format/Info : Advanced Video Codec
Format profile : High@L4.1
Format settings, CABAC : Yes
Format settings, ReFrames : 9 frames
Codec ID : V_MPEG4/ISO/AVC
Duration : 2h 10mn
Bit rate : 4 515 Kbps
Width : 1 280 pixels
Height : 694 pixels
Display aspect ratio : 1.85:1
Frame rate mode : Constant
Frame rate : 24.000 fps
Color space : YUV
Chroma subsampling : 4:2:0
Bit depth : 8 bits
Scan type : Progressive
Bits/(Pixel*Frame) : 0.212
Stream size : 4.11 GiB (73%)
Writing library : x264 core 142 r2409+42 04be48a tMod [8-bit@all X86_64]
Encoding settings : cabac=1 / ref=9 / deblock=1:-2:-3 / analyse=0x3:0x113 / me=umh / subme=11 / psy=1 / fade_compensate=0.00 / psy_rd=1.00:0.00 / mixed_ref=1 / me_range=32 / chroma_me=1 / trellis=2 / 8x8dct=1 / cqm=0 / deadzone=21,11 / fast_pskip=0 / chroma_qp_offset=-2 / threads=12 / lookahead_threads=2 / sliced_threads=0 / nr=0 / decimate=1 / interlaced=0 / bluray_compat=0 / constrained_intra=0 / fgo=0 / bframes=8 / b_pyramid=2 / b_adapt=2 / b_bias=0 / direct=3 / weightb=1 / open_gop=0 / weightp=2 / keyint=240 / keyint_min=24 / scenecut=40 / intra_refresh=0 / rc=crf / mbtree=0 / crf=17.5000 / qcomp=0.60 / qpmin=0:0:0 / qpmax=69:69:69 / qpstep=5 / ip_ratio=1.40 / pb_ratio=1.30 / aq=2:0.80 / aq-sensitivity=10.00 / aq-factor=1.00:1.00:1.00 / aq2=0 / aq3=0
Language : English
Default : Yes
Forced : No

Audio
ID : 2
Format : DTS
Format/Info : Digital Theater Systems
Mode : 16
Format settings, Endianness : Big
Codec ID : A_DTS
Duration : 2h 10mn
Bit rate mode : Constant
Bit rate : 1 509 Kbps
Channel(s) : 6 channels
Channel positions : Front: L C R, Side: L R, LFE
Sampling rate : 48.0 KHz
Bit depth : 24 bits
Compression mode : Lossy
Stream size : 1.38 GiB (25%)
Title : Original
Language : Russian
Default : Yes
Forced : No



   Похожие торренты   Торрент   Размер 
В этой теме нет новых непрочитанных сообщений. Изгой / The Outsider (2014) BDRip 720p | L2

317 | 95

3.7 ГБ

В этой теме нет новых непрочитанных сообщений. Изгой / The Outsider (2014) BDRip 720p от CINEMANIA | L2

266 | 103

4.27 ГБ

В этой теме нет новых непрочитанных сообщений. Дубровский (2014) BDRip 720p от Leonardo and Scarabey | Лицензия

170 | 124

4.17 ГБ

В этой теме нет новых непрочитанных сообщений. Дубровский (2014) BDRip | Лицензия

392 | 69

2.05 ГБ

В этой теме нет новых непрочитанных сообщений. Дубровский (2014) BDRip-AVC | iPad

46 | 27

2.04 ГБ

В этой теме нет новых непрочитанных сообщений. Дубровский (2014) BDRip | Лицензия

1058 | 178

1.37 ГБ

В этой теме нет новых непрочитанных сообщений. Дубровский (2014) BDRip 1080p

128 | 56

7.76 ГБ




Вы не можете начинать темы
Вы не можете отвечать на сообщения
Вы не можете редактировать свои сообщения
Вы не можете удалять свои сообщения
Вы не можете добавлять вложения

Перейти:  
Для Мосгорсуда, Роскомнадзора и рекламодателей: mosgorsud-torrent[собачка]yandex.ru
 Вход
ppkBB3cker v.2 © 2008-2014 @ PPK
[ Time : 0.047s | 16 Queries | GZIP : Off ]

cron