img image001 image001 image001 image001 image001 image001 image001 image001 image001 image001 image001 image001 image001 image001 image001

Planets Sun Sun Sun
Статистика раздачи
Автор: Nickolas3434 | Размер: 2.85 ГБ | Добавлен: 14 апр 2014
Раздают: 115    Качают: 62
Скачать торрент
Скачать торрент
Описание торрента

СообщениеДобавлено: 14 апр 2014 

Информация о фильме
Название: Дубровский
Оригинальное название: Оригинальное название (для иностранных фильмов)
Год выхода: 2014
Жанр: Драма
Режиссер: Александр Вартанов, Кирилл Михановский
В ролях: Данила Козловский, Клавдия Коршунова, Юрий Цурило, Александр Мезенцев, Игорь Гордин, Дмитрий Поднозов, Елена Дудина, Евгений Вакунов, Артём Кобзев, Любовь Сергеева, Никита Тезин

О фильме:
Владимир — успешный столичный банкир и завсегдатай модных клубов, Маша – прилежная студентка юридического факультета и нежная дочь… Ничто не предвещает трагического поворота в судьбе благополучных молодых людей. Однако неожиданная ссора взбалмошных отцов заставляет детей в деталях пережить пушкинскую коллизию. Это классический сюжет криминальной драмы, который перенесен в современность и изложенный современным языком.


Страна: Россия / «ТВИНДИ»
Продолжительность: 02:05:14
Перевод: Оригинал [лицензия]

Файл
Качество: BDRip-AVC
Видео: MPEG-4 AVC, 2678 Кбит/с, 1024x552, 24.000 кадр/с
Аудио : Русский (AC3, 6 ch, 448 Кбит/с)
Субтитры: Русские (форсированные)

Семпл

x264 [info]: frame I:1183 Avg QP:15.49 size: 83541
x264 [info]: frame P:47064 Avg QP:18.72 size: 27463
x264 [info]: frame B:139623 Avg QP:20.41 size: 8780
x264 [info]: consecutive B-frames: 4.2% 5.0% 10.7% 23.5% 19.0% 23.0% 7.6% 3.5% 2.1% 0.8% 0.6%
x264 [info]: mb I I16..4: 10.4% 65.5% 24.1%
x264 [info]: mb P I16..4: 2.0% 12.9% 1.7% P16..4: 32.3% 34.7% 11.7% 0.0% 0.0% skip: 4.7%
x264 [info]: mb B I16..4: 0.2% 1.3% 0.1% B16..8: 32.3% 18.8% 3.1% direct: 6.1% skip:38.1% L0:41.7% L1:43.2% BI:15.2%
x264 [info]: 8x8 transform intra:76.7% inter:56.8%
x264 [info]: direct mvs spatial:98.5% temporal:1.5%
x264 [info]: coded y,uvDC,uvAC intra: 80.5% 81.0% 58.7% inter: 23.0% 25.9% 13.5%
x264 [info]: i16 v,h,dc,p: 17% 11% 7% 65%
x264 [info]: i8 v,h,dc,ddl,ddr,vr,hd,vl,hu: 14% 8% 9% 8% 11% 12% 12% 12% 13%
x264 [info]: i4 v,h,dc,ddl,ddr,vr,hd,vl,hu: 17% 11% 6% 7% 13% 13% 12% 10% 11%
x264 [info]: i8c dc,h,v,p: 39% 23% 19% 20%
x264 [info]: Weighted P-Frames: Y:10.0% UV:6.8%
x264 [info]: ref P L0: 46.1% 9.8% 17.8% 6.4% 5.6% 3.9% 3.8% 2.1% 2.2% 1.9% 0.5% 0.0%
x264 [info]: ref B L0: 72.7% 12.0% 5.6% 3.0% 2.2% 1.9% 1.5% 0.7% 0.4%
x264 [info]: ref B L1: 93.1% 6.9%
x264 [info]: kb/s:2674.73

Format : Matroska
Format version : Version 4 / Version 2
File size : 2.85 GiB
Duration : 2h 10mn
Overall bit rate : 3 124 Kbps
Movie name : -=MediaClub - Odessit=-
Encoded date : UTC 2014-04-14 08:24:26
Writing application : mkvmerge v6.8.0 ('Theme for Great Cities') 64bit built on Mar 2 2014 21:34:26
Writing library : libebml v1.3.0 + libmatroska v1.4.1

Video
ID : 1
Format : AVC
Format/Info : Advanced Video Codec
Format profile : High@L4.1
Format settings, CABAC : Yes
Format settings, ReFrames : 10 frames
Codec ID : V_MPEG4/ISO/AVC
Duration : 2h 10mn
Bit rate : 2 678 Kbps
Width : 1 024 pixels
Height : 552 pixels
Display aspect ratio : 1.855
Frame rate : 24.000 fps
Color space : YUV
Chroma subsampling : 4:2:0
Bit depth : 8 bits
Scan type : Progressive
Bits/(Pixel*Frame) : 0.197
Stream size : 2.38 GiB (84%)
Writing library : x264 core 142 r2409+42 04be48a tMod [8-bit@all X86_64]
Encoding settings : cabac=1 / ref=10 / deblock=1:-3:-3 / analyse=0x3:0x113 / me=umh / subme=11 / psy=1 / fade_compensate=0.00 / psy_rd=1.00:0.20 / mixed_ref=1 / me_range=64 / chroma_me=1 / trellis=2 / 8x8dct=1 / cqm=0 / deadzone=21,11 / fast_pskip=0 / chroma_qp_offset=-3 / threads=6 / lookahead_threads=1 / sliced_threads=0 / nr=0 / decimate=0 / interlaced=0 / bluray_compat=0 / constrained_intra=0 / fgo=0 / bframes=10 / b_pyramid=2 / b_adapt=2 / b_bias=0 / direct=3 / weightb=1 / open_gop=0 / weightp=2 / keyint=240 / keyint_min=24 / scenecut=40 / intra_refresh=0 / rc=2pass / mbtree=0 / bitrate=2678 / ratetol=1.0 / qcomp=0.60 / qpmin=0:0:0 / qpmax=69:69:69 / qpstep=4 / cplxblur=20.0 / qblur=0.5 / ip_ratio=1.40 / pb_ratio=1.30 / aq=2:0.80 / aq-sensitivity=10.00 / aq-factor=1.00:1.00:1.00 / aq2=0 / aq3=0
Language : English

Audio
ID : 2
Format : AC-3
Format/Info : Audio Coding 3
Mode extension : CM (complete main)
Codec ID : A_AC3
Duration : 2h 10mn
Bit rate mode : Constant
Bit rate : 448 Kbps
Channel(s) : 6 channels
Channel positions : Front: L C R, Side: L R, LFE
Sampling rate : 48.0 KHz
Bit depth : 16 bits
Compression mode : Lossy
Stream size : 418 MiB (14%)
Language : Russian

Text
ID : 3
Format : UTF-8
Codec ID : S_TEXT/UTF8
Codec ID/Info : UTF-8 Plain Text
Title : Forced
Language : Russian

Menu
00:00:00.000 : :Chapter 01
00:01:54.291 : :Chapter 02
00:14:32.875 : :Chapter 03
00:27:59.333 : :Chapter 04
00:43:19.291 : :Chapter 05
01:00:07.625 : :Chapter 06
01:15:44.833 : :Chapter 07
01:33:29.291 : :Chapter 08
01:52:33.875 : :Chapter 09



Релиз от: |



   Похожие торренты   Торрент   Размер 
В этой теме нет новых непрочитанных сообщений. Дубровский (2014) DVDRip-AVC от MediaClub | Лицензия

343 | 268

2.18 ГБ

В этой теме нет новых непрочитанных сообщений. Дубровский (2014) BDRip | Лицензия

392 | 69

2.05 ГБ

В этой теме нет новых непрочитанных сообщений. Дубровский (2014) BDRip | Лицензия

1058 | 178

1.37 ГБ

В этой теме нет новых непрочитанных сообщений. Дубровский (2014) BDRip-AVC от HELLYWOOD | Лицензия

185 | 125

2.18 ГБ

В этой теме нет новых непрочитанных сообщений. Дубровский (2014) BDRip от HQCLUB | Лицензия

123 | 41

2.18 ГБ

В этой теме нет новых непрочитанных сообщений. Дубровский (2014) BDRip от Scarabey | Лицензия

1166 | 114

1.45 ГБ

В этой теме нет новых непрочитанных сообщений. Дубровский (2014) BDRip от Scarabey | Лицензия

141 | 29

782.08 МБ




Вы не можете начинать темы
Вы не можете отвечать на сообщения
Вы не можете редактировать свои сообщения
Вы не можете удалять свои сообщения
Вы не можете добавлять вложения

Перейти:  
Для Мосгорсуда, Роскомнадзора и рекламодателей: mosgorsud-torrent[собачка]yandex.ru
 Вход
ppkBB3cker v.2 © 2008-2014 @ PPK
[ Time : 0.544s | 16 Queries | GZIP : Off ]

Торрент трекер RUTOR.IN, Не можете зайти на rutor.org? Какой новый адрес рутор? Какое зеркало рутор? Не работает rutor.org и зеркала? Тогда наш торрент специально для вас. Rutor.in неофициальное зеркало rutor. В случае если у Вас заблокирован rutor или вдруг Вы не можете на него зайти, то Вы без труда сможете скачать бесплатно и без рекламы последние новинки кино, игр, сериалов и прочего у нас, на Rutor.in. Не нужно использовать прокси, чтобы зайти на рутор, достаточно воспользоваться нашим ресурсом. Все новые фильмы, игры, сериалы, книги и музыка за 2013 и 2014 годы через торрент бесплатно. Скачивайте фильмы в хорошем качестве, игры для пк, xbox, playstation без регистрации. У нас вы найдете новые Зарубежные сериалы и Русские сериалы 2013, 2014, 2015 годов. Оставайтесь с нами, качайте любимые фильмы, игры, сериалы, книги и музыку.
cron