img image001 image001 image001 image001 image001 image001 image001 image001 image001 image001 image001 image001 image001 image001 image001

Planets Sun Sun Sun
Статистика раздачи
Автор: Nickolas3434 | Размер: 642.54 МБ | Добавлен: 16 апр 2014
Раздают: 171    Качают: 39
Скачать торрент
Скачать торрент
Описание торрента

СообщениеДобавлено: 16 апр 2014 

Информация о фильме
Название: 1210 Тысяча двести десять
Год выхода: 2012
Жанр: Драма
Режиссер: Арсений Гончуков
В ролях: Роберт Вааб, Александр Сухинин, Виктор Немец, Юлия Дегтяренко, Александр Гавриков, Елизавета Лукьянова, Владимир Шинов, Артем Кобзев, Николай Бутенин, Елена Елесина

О фильме:
"1210" - это пронзительная история про "маленького человека", который пытается добиться справедливости от государства.
Николай Баранов, ветеран забытой афганской войны, требует положенную «ветеранскую» надбавку к пенсии - тысячу двести десять рублей. Но надбавку отменили.
Оскорбленное достоинство, чувство вины и безысходности толкают офицера на страшный поступок...
Фильм «1210» основан на реальных событиях. Равнодушие государства и общества, презрение к пожилым людям, к собственной истории, месть и даже бунт – все эти темы затронуты в жесткой и непримиримой истории, героя которой вполне можно назвать «героем нашего времени».

Награды:
- Приз в номинации "Начало". Национальная премия "Страна", г. Москва, 2013 г.
- Фестиваль военно-патриотического кино "Волоколамский рубеж", Специальный приз жюри, г. Волоколамск, 2013 г.;
- Приз "Анне" фильму "1210" "За лучшее исполнение главной мужской роли". VI Чебоксарский международный кинофестиваль, г. Чебоксары, 2013 г.
- Приз Серебряный Жан-Люк "Маленький солдат" - за лучший фильм о войне". Четвертый международный фестиваль авторского кино "Киноликбез-4", г. Барнаул;
- Диплом "За лучшую премьеру в киноклубе "Трибуна". Департамент культуры г. Москва, ГБУК "Московское кино", г. Москва, 2012 г.;

Участие в фестивалях, фестивальные показы:
- Международный кинофестиваль "ArtoDocs", Санкт-Петербург, 2012 г.;
- Международный фестиваль независимого кино "Дебошир Фильм – Чистые грезы", Санкт-Петербург, 2012 г.;
- XI Международный фестиваль кинематографических дебютов "Дух Огня", г. Ханты-Мансийск, 2013 г.;
- IV Международный фестиваль авторского игрового, документального и анимационного кино "Киноликбез", 2013 г.;
- Чебоксарский международный кинофестиваль, 2013 г.;
- Санкт-Петербургский международный кинофестиваль "Фестиваль Фестивалей", программа "Новое российское кино";
- VII международный кинофестиваль им. Андрея Тарковского “Зеркало”, программа "Свои. Новое кино России”, 2013 г.
- Международный фестиваль короткометражных фильмов "Кадр, Вперед!", г. Ярославль, 2013 г.
- Национальная премия "Страна", г. Москва, 2013 г.
- Кинофестиваль "Волоколамский рубеж", г. Волоколамск, 2013 г.
- XVI Международный фестиваль "DetectiveFEST", г. Москва, 2014 г.
- Второй Кинофестиваль короткометражных фильмов «Real Heroes Film Festival», г. Магнитогорск, 2014 г.
- X Юбилейный Международный кинотелефестиваль "Победили вместе", г. Севастополь, 2014 г.



Интернет-премьера жесткой социальной драмы от правообладателей. Фильм был снят в 2012 году, без поддержки государства и продюсеров, на собственные средства авторов и при помощи народного финансирования. Фильм создан с беспрецедентно низким по меркам кино бюджетом в 600 тыс. руб. Несмотря на то, что картину "1210" не раз запрещали к показу, драма была выпущена в прокат и показана в десятках городов России, Украины, а так же в Германии и Испании. Режиссер фильма Арсений Гончуков - обладатель 11-ти российских и международных наград, автор неоднозначного короткометражного фильма "Конечная остановка" и полнометражной ленты "Полет. Три дня после катастрофы".

Официальный сайт

Страна: Россия
Студия: Арсений Гончуков
Продолжительность: 01:12:57
Перевод: Оригинал

Файл
Кодек: MPEG-4
Качество: КПК
Видео: 480x272, 25 fps, 1067 kbps
Звук: AAC, 48 kHz, 2 ch, 160 kbps

Семпл


General
Complete name : 2012kpk1210_FILM_A.GONCHUKOV_(2012)_1080p_HD_25.mp4
Format : MPEG-4
Format profile : Base Media
Codec ID : isom
File size : 643 MiB
Duration : 1h 12mn
Overall bit rate : 1 231 Kbps
Encoded date : UTC 2014-04-10 22:52:38
Tagged date : UTC 2014-04-10 22:52:38
Writing application : Lavf54.63.104

Video
ID : 1
Format : MPEG-4 Visual
Format profile : Simple@L1
Format settings, BVOP : No
Format settings, QPel : No
Format settings, GMC : No warppoints
Format settings, Matrix : Default (H.263)
Codec ID : 20
Duration : 1h 12mn
Duration_FirstFrame : 40ms
Bit rate mode : Variable
Bit rate : 1 067 Kbps
Maximum bit rate : 1 126 Kbps
Width : 480 pixels
Height : 272 pixels
Display aspect ratio : 16:9
Frame rate mode : Constant
Frame rate : 25.000 fps
Color space : YUV
Chroma subsampling : 4:2:0
Bit depth : 8 bits
Scan type : Progressive
Compression mode : Lossy
Bits/(Pixel*Frame) : 0.327
Stream size : 557 MiB (87%)
Writing library : Lavc54.92.100
Encoded date : UTC 2014-04-10 22:52:38
Tagged date : UTC 2014-04-10 22:52:38

Audio
ID : 2
Format : AAC
Format/Info : Advanced Audio Codec
Format profile : LC
Codec ID : 40
Duration : 1h 12mn
Duration_FirstFrame : 64ms
Bit rate mode : Constant
Bit rate : 160 Kbps
Channel(s) : 2 channels
Channel positions : Front: L R
Sampling rate : 48.0 KHz
Compression mode : Lossy
Stream size : 83.4 MiB (13%)
Encoded date : UTC 2014-04-10 22:52:38
Tagged date : UTC 2014-04-10 22:52:38

Релиз от: автора Арсения Гончукова



   Похожие торренты   Торрент   Размер 
В этой теме нет новых непрочитанных сообщений. 1210 / Тысяча двести десять (Арсений Гончуков) [2012, драма] HDRip

163 | 8

1.82 ГБ

В этой теме нет новых непрочитанных сообщений. 1210 (2012) BDRip

253 | 65

1.46 ГБ

В этой теме нет новых непрочитанных сообщений. 1210 (2012) BDRip-AVC

102 | 42

1.45 ГБ

В этой теме нет новых непрочитанных сообщений. 1210 (2012) 1080p

59 | 55

24.97 ГБ

В этой теме нет новых непрочитанных сообщений. 1210 (2012) BDRip 1080p

73 | 43

4.35 ГБ

В этой теме нет новых непрочитанных сообщений. 1210 (2012) BDRip 720p by msltel

73 | 19

2.63 ГБ

В этой теме нет новых непрочитанных сообщений. Risen 2: Тёмные воды / Risen 2: Dark Waters [1.0.1210.0 + fix DLC] (2012) PC | Патч

0 | 3

264.1 МБ




Вы не можете начинать темы
Вы не можете отвечать на сообщения
Вы не можете редактировать свои сообщения
Вы не можете удалять свои сообщения
Вы не можете добавлять вложения

Перейти:  
Для Мосгорсуда, Роскомнадзора и рекламодателей: mosgorsud-torrent[собачка]yandex.ru
 Вход
ppkBB3cker v.2 © 2008-2014 @ PPK
[ Time : 0.036s | 16 Queries | GZIP : Off ]

Торрент трекер RUTOR.IN, Не можете зайти на rutor.org? Какой новый адрес рутор? Какое зеркало рутор? Не работает rutor.org и зеркала? Тогда наш торрент специально для вас. Rutor.in неофициальное зеркало rutor. В случае если у Вас заблокирован rutor или вдруг Вы не можете на него зайти, то Вы без труда сможете скачать бесплатно и без рекламы последние новинки кино, игр, сериалов и прочего у нас, на Rutor.in. Не нужно использовать прокси, чтобы зайти на рутор, достаточно воспользоваться нашим ресурсом. Все новые фильмы, игры, сериалы, книги и музыка за 2013 и 2014 годы через торрент бесплатно. Скачивайте фильмы в хорошем качестве, игры для пк, xbox, playstation без регистрации. У нас вы найдете новые Зарубежные сериалы и Русские сериалы 2013, 2014, 2015 годов. Оставайтесь с нами, качайте любимые фильмы, игры, сериалы, книги и музыку.