img image001 image001 image001 image001 image001 image001 image001 image001 image001 image001 image001 image001 image001 image001 image001

Planets Sun Sun Sun
Статистика раздачи
Автор: Nickolas3434 | Размер: 2.19 ГБ | Добавлен: 18 апр 2014
Раздают: 42    Качают: 16
Скачать торрент
Скачать торрент
Описание торрента

СообщениеДобавлено: 18 апр 2014 

Страна: СССР
Производство: Союзтелефильм

Жанр: приключения
Год выпуска: 1990
Продолжительность: 02:23:34 (01:11:38 + 01:11:56)

Перевод: не требуется
Оригинальная аудиодорожка: русский
Cубтитры: нет

Режиссер: Андрей Ростоцкий

В ролях:
Андрей Хворов, Павел Абдалов, Ольга Машная, Елена Кондулайнен, Эдуард Мурашов, Георгий Пицхелаури, Владимир Топцов, Владимир Пивоваров, Борис Миронов, Николай Карпов, Владимир Епископосян, Варвара Никитина, Всеволод Хабаров, Сергей Лодзейский, Наталья Табакова...

Описание:
Пока французы и англичане сражались за североамериканские территории, индейские племена гуронов и делаваров также дрались между собой за свои родные земли. И в этой войне благородной и отважный Чингачгук, один из лучших воинов-делаваров, проявлял чудеса героизма…





Исходник: DVD9 R5
Тип релиза: DVDRip
Контейнер: AVI

Видео: 720x544 (4:3), 25 fps, XviD ~ 1977 kbps avg, 0.202 bit/pixel
Аудио: 48 kHz, Dolby AC3 2.0, 192 kbps

Раздача от:
Общее
Полное имя : Zveroboy.1990.DVDRip_[New-team]_by_AVP_Studio.avi
Формат : AVI
Формат/Информация : Audio Video Interleave
Размер файла : 1,09 Гбайт
Продолжительность : 1 ч. 11 м.
Общий поток : 2179 Кбит/сек
Программа кодирования : VirtualDubModRus 1.5.10.2 (build 2542/release)
Библиотека кодирования : VirtualDubMod build 2542/release

Видео
Идентификатор : 0
Формат : MPEG-4 Visual
Профиль формата : Advanced Simple@L5
Параметр BVOP формата : 1
Параметр QPel формата : Нет
Параметр GMC формата : Без точки перехода
Параметр матрицы формата : Выборочная
Идентификатор кодека : XVID
Идентификатор кодека/Подсказка : XviD
Продолжительность : 1 ч. 11 м.
Битрейт : 1977 Кбит/сек
Ширина : 720 пикселей
Высота : 544 пикселя
Соотношение сторон : 4:3
Частота кадров : 25,000 кадров/сек
Цветовое пространство : YUV
Субдискретизация насыщенности : 4:2:0
Битовая глубина : 8 бит
Тип развёртки : Прогрессивная
Метод сжатия : С потерями
Бит/(Пиксели*Кадры) : 0.202
Размер потока : 1013 Мбайт (91%)
Библиотека кодирования : XviD 73

Аудио
Идентификатор : 1
Формат : AC-3
Формат/Информация : Audio Coding 3
Расширение режима : CM (complete main)
Параметр Endianness формата : Big
Идентификатор кодека : 2000
Продолжительность : 1 ч. 11 м.
Вид битрейта : Постоянный
Битрейт : 192 Кбит/сек
Каналы : 2 канала
Расположение каналов : Front: L R
Частота : 48,0 КГц
Битовая глубина : 16 бит
Метод сжатия : С потерями
Размер потока : 98,4 Мбайт (9%)
Выравнивание : Разделение по промежуткам
Продолжительность промежутка : 40 мс. (1,00 видеокадр)
Время предзагрузки промежутка : 500 мс





   Похожие торренты   Торрент   Размер 
В этой теме нет новых непрочитанных сообщений. Зверобой (1990) DVDRip-AVC от New-Team

49 | 34

2.19 ГБ

В этой теме нет новых непрочитанных сообщений. Зверобой (1990) DVDRip от New-Team

60 | 18

1.45 ГБ

В этой теме нет новых непрочитанных сообщений. Зверобой (1990) DVDRip

3 | 4

2.05 ГБ

В этой теме нет новых непрочитанных сообщений. Зверобой (1990) DVDRip-AVC от UAGet

6 | 3

2.18 ГБ

В этой теме нет новых непрочитанных сообщений. Зверобой (1990) DVDRip от KinoZalSat

22 | 6

2.15 ГБ

В этой теме нет новых непрочитанных сообщений. Зверобой (1990) DVDRip от MediaClub

95 | 9

1.45 ГБ

В этой теме нет новых непрочитанных сообщений. Зверобой (1990) DVDRip от MediaClub

214 | 25

2.17 ГБ




Вы не можете начинать темы
Вы не можете отвечать на сообщения
Вы не можете редактировать свои сообщения
Вы не можете удалять свои сообщения
Вы не можете добавлять вложения

Перейти:  
Для Мосгорсуда, Роскомнадзора и рекламодателей: mosgorsud-torrent[собачка]yandex.ru
 Вход
ppkBB3cker v.2 © 2008-2014 @ PPK
[ Time : 0.036s | 15 Queries | GZIP : Off ]

Торрент трекер RUTOR.IN, Не можете зайти на rutor.org? Какой новый адрес рутор? Какое зеркало рутор? Не работает rutor.org и зеркала? Тогда наш торрент специально для вас. Rutor.in неофициальное зеркало rutor. В случае если у Вас заблокирован rutor или вдруг Вы не можете на него зайти, то Вы без труда сможете скачать бесплатно и без рекламы последние новинки кино, игр, сериалов и прочего у нас, на Rutor.in. Не нужно использовать прокси, чтобы зайти на рутор, достаточно воспользоваться нашим ресурсом. Все новые фильмы, игры, сериалы, книги и музыка за 2013 и 2014 годы через торрент бесплатно. Скачивайте фильмы в хорошем качестве, игры для пк, xbox, playstation без регистрации. У нас вы найдете новые Зарубежные сериалы и Русские сериалы 2013, 2014, 2015 годов. Оставайтесь с нами, качайте любимые фильмы, игры, сериалы, книги и музыку.