img image001 image001 image001 image001 image001 image001 image001 image001 image001 image001 image001 image001 image001 image001 image001

Planets Sun Sun Sun
Статистика раздачи
Автор: Nickolas3434 | Размер: 1.46 ГБ | Добавлен: 18 апр 2014
Раздают: 7    Качают: 26
Скачать торрент
Скачать торрент
Описание торрента

СообщениеДобавлено: 18 апр 2014 

Страна: СССР
Производство: Мосфильм

Жанр: драма, военный
Год выпуска: 1990
Продолжительность: 01:23:30

Перевод: не требуется
Оригинальная аудиодорожка: русский
Cубтитры: нет

Режиссер: Александр Муратов

В ролях:
Дмитрий Певцов, Армен Джигарханян, Юрий Назаров, Валерий Носик, Лев Прыгунов, Владимир Самойлов, Борис Щербаков, Виктор Филиппов, Борис Клюев, Игорь Ясулович, Татьяна Скороходова, Евгений Евстигнеев, Владимир Аникин, Владимир Еремин...

Описание:
«Зверь» — так прозвали его те, кто попробовал его ломовые удары. Гордость спецназа, прошедший войну в Афганистане, получил срок, спасая друга. В лагере он попал в кольцо — все против него, а с воли за ним идут наемные убийцы. Он совершает побег, чтобы рассчитаться с врагами, а главное — спасти беззащитную золотоволосую красавицу…





Исходник: DVD5 R5
Тип релиза: DVDRip
Контейнер: AVI

Видео: 688x528 (4:3), 25 fps, XviD ~ 2102 kbps avg, 0.231 bit/pixel
Аудио: 48 kHz, Dolby Digital AC3 5.1, 384 kbps

Раздача от:
Общее
Полное имя : ...Po.prozvishhu.Zver.1990.DVDRip-1,46_[New-team]_by_AVP_Studio.avi
Формат : AVI
Формат/Информация : Audio Video Interleave
Размер файла : 1,46 Гбайт
Продолжительность : 1 ч. 23 м.
Общий поток : 2495 Кбит/сек
Программа кодирования : VirtualDubModRus 1.5.10.2 (build 2542/release)
Библиотека кодирования : VirtualDubMod build 2542/release

Видео
Идентификатор : 0
Формат : MPEG-4 Visual
Профиль формата : Advanced Simple@L5
Параметр BVOP формата : 1
Параметр QPel формата : Нет
Параметр GMC формата : Без точки перехода
Параметр матрицы формата : Выборочная
Идентификатор кодека : XVID
Идентификатор кодека/Подсказка : XviD
Продолжительность : 1 ч. 23 м.
Битрейт : 2102 Кбит/сек
Ширина : 688 пикселей
Высота : 528 пикселей
Соотношение сторон : 4:3
Частота кадров : 25,000 кадров/сек
Цветовое пространство : YUV
Субдискретизация насыщенности : 4:2:0
Битовая глубина : 8 бит
Тип развёртки : Прогрессивная
Метод сжатия : С потерями
Бит/(Пиксели*Кадры) : 0.231
Размер потока : 1,23 Гбайт (84%)
Библиотека кодирования : XviD 73

Аудио
Идентификатор : 1
Формат : AC-3
Формат/Информация : Audio Coding 3
Расширение режима : CM (complete main)
Параметр Endianness формата : Big
Идентификатор кодека : 2000
Продолжительность : 1 ч. 23 м.
Вид битрейта : Постоянный
Битрейт : 384 Кбит/сек
Каналы : 6 каналов
Расположение каналов : Front: L C R, Side: L R, LFE
Частота : 48,0 КГц
Битовая глубина : 16 бит
Метод сжатия : С потерями
Задержка видео : 64 мс.
Размер потока : 229 Мбайт (15%)
Выравнивание : Разделение по промежуткам
Продолжительность промежутка : 40 мс. (1,00 видеокадр)
Время предзагрузки промежутка : 500 мс





   Похожие торренты   Торрент   Размер 
В этой теме нет новых непрочитанных сообщений. ...По прозвищу «Зверь» (1990) DVDRip от New-Team

402 | 92

744.59 МБ

В этой теме нет новых непрочитанных сообщений. ...По прозвищу «Зверь» (1990) DVDRip-AVC от New-Team

664 | 48

1.46 ГБ

В этой теме нет новых непрочитанных сообщений. По прозвищу «Зверь» (1990) DVDRip

18 | 7

1.41 ГБ

В этой теме нет новых непрочитанных сообщений. По прозвищу «Зверь» (1990) DVDRip

52 | 17

1.46 ГБ

В этой теме нет новых непрочитанных сообщений. По прозвищу «Зверь» (1990) DVD5

5 | 8

4.25 ГБ

В этой теме нет новых непрочитанных сообщений. Индзю, зверь в тени / Инжу, зверь во тьме / Inju, la bête dans l'ombre (2008) DVDRip

0 | 2

1.37 ГБ

В этой теме нет новых непрочитанных сообщений. Мой ласковый и нежный зверь (1978) BDRip от New-Team

22 | 5

745.47 МБ




Вы не можете начинать темы
Вы не можете отвечать на сообщения
Вы не можете редактировать свои сообщения
Вы не можете удалять свои сообщения
Вы не можете добавлять вложения

Перейти:  
Для Мосгорсуда, Роскомнадзора и рекламодателей: mosgorsud-torrent[собачка]yandex.ru
 Вход
ppkBB3cker v.2 © 2008-2014 @ PPK
[ Time : 0.033s | 16 Queries | GZIP : Off ]

cron