img image001 image001 image001 image001 image001 image001 image001 image001 image001 image001 image001 image001 image001 image001 image001

Planets Sun Sun Sun
Статистика раздачи
Автор: Nickolas3434 | Размер: 743.55 МБ | Добавлен: 19 апр 2014
Раздают: 66    Качают: 29
Скачать торрент
Скачать торрент
Описание торрента

СообщениеДобавлено: 19 апр 2014 

Страна: Польша, СССР
Производство: Таллинфильм, Zespol Filmowy "Oko"

Жанр: фантастика, приключения
Год выпуска: 1987
Продолжительность: 01:39:29

Перевод: не требуется
Оригинальная аудиодорожка: русский
Cубтитры: нет

Режиссер: Марек Пестрак / Marek Piestrak

В ролях:
Кшиштоф Кольбергер, Роман Вильгельми, Ева Салацка, Збигнев Лесень, Леон Немчик, Игорь Пшегородский, Зигмунд Белявский, Хенрик Биста, Лан Бик, Ле Ван Тоан, Трин Тхин, Туан Ту, Мин Там, Ху Хиэн, Сергей Десницкий, Тыну Саар, Маргус Туулинг, Микк Микивер...

Описание:
Парижский антиквар Травен некогда выкрал из лаосского монастыря священную реликвию и манускрипт, гласивший, что в Долине Тысячи Змей хранится оружие, обладатель которого станет властелином мира.
Проходит время, и Травен с польским ученым отправляются в экспедицию в Долину, не подозревая, что тайна манускрипта известна не только им…





Исходник: DVD9 R2
Тип релиза: DVDRip
Контейнер: AVI

Видео: 656x384 (1,708:1), 25 fps, XviD ~ 907 kbps avg, 0.144 bit/pixel
Аудио: 48 kHz, MP3 2.0, 128 kbps

Раздача от:
Общее
Полное имя : Zaklyatie.doliny.zmey.1987.DVDRip-745_[New-team]_by_AVP_Studio.avi
Формат : AVI
Формат/Информация : Audio Video Interleave
Размер файла : 744 Мбайт
Продолжительность : 1 ч. 39 м.
Общий поток : 1045 Кбит/сек
Программа кодирования : VirtualDubModRus 1.5.10.2 (build 2542/release)
Библиотека кодирования : VirtualDubMod build 2542/release

Видео
Идентификатор : 0
Формат : MPEG-4 Visual
Профиль формата : Advanced Simple@L5
Параметр BVOP формата : 1
Параметр QPel формата : Нет
Параметр GMC формата : Без точки перехода
Параметр матрицы формата : Выборочная
Идентификатор кодека : XVID
Идентификатор кодека/Подсказка : XviD
Продолжительность : 1 ч. 39 м.
Битрейт : 907 Кбит/сек
Ширина : 656 пикселей
Высота : 384 пикселя
Соотношение сторон : 1,708
Частота кадров : 25,000 кадров/сек
Цветовое пространство : YUV
Субдискретизация насыщенности : 4:2:0
Битовая глубина : 8 бит
Тип развёртки : Прогрессивная
Метод сжатия : С потерями
Бит/(Пиксели*Кадры) : 0.144
Размер потока : 646 Мбайт (87%)
Библиотека кодирования : XviD 73

Аудио
Идентификатор : 1
Формат : MPEG Audio
Версия формата : Version 1
Профиль формата : Layer 3
Идентификатор кодека : 55
Идентификатор кодека/Подсказка : MP3
Продолжительность : 1 ч. 39 м.
Вид битрейта : Постоянный
Битрейт : 128 Кбит/сек
Каналы : 2 канала
Частота : 48,0 КГц
Метод сжатия : С потерями
Размер потока : 91,1 Мбайт (12%)
Выравнивание : Соединение по промежуткам
Продолжительность промежутка : 40 мс. (1,00 видеокадр)
Время предзагрузки промежутка : 504 мс.
Библиотека кодирования : LAME3.99r
Настройки программы : -m s -V 4 -q 2 -lowpass 17 -b 128





   Похожие торренты   Торрент   Размер 
В этой теме нет новых непрочитанных сообщений. Заклятие долины змей / Klatwa Doliny Wezy (1987) DVDRip от New-Team

136 | 47

1.45 ГБ

В этой теме нет новых непрочитанных сообщений. Заклятие долины змей / Klatwa Doliny Wezy (1987) DVDRip-AVC от New-Team

105 | 52

1.46 ГБ

В этой теме нет новых непрочитанных сообщений. Заклятие долины змей / Klatwa Doliny Wezy (1987) DVD5 от New-Team | Лицензия

27 | 15

4.36 ГБ

В этой теме нет новых непрочитанных сообщений. Заклятие долины змей / Klatwa Doliny Wezy (1987) DVDRip

31 | 7

1.45 ГБ

В этой теме нет новых непрочитанных сообщений. Заклятие Долины Змей / Klatwa Doliny Wezy (1987) DVDRip

14 | 4

1.45 ГБ

В этой теме нет новых непрочитанных сообщений. Заклятие долины змей / Klatwa doliny wezy (1987) DVDRip от Scarabey | D

86 | 16

743.39 МБ

В этой теме нет новых непрочитанных сообщений. Заклятие долины змей / Klatwa doliny wezy (1987) DVDRip от Scarabey | D

60 | 6

1.45 ГБ




Вы не можете начинать темы
Вы не можете отвечать на сообщения
Вы не можете редактировать свои сообщения
Вы не можете удалять свои сообщения
Вы не можете добавлять вложения

Перейти:  
Для Мосгорсуда, Роскомнадзора и рекламодателей: mosgorsud-torrent[собачка]yandex.ru
 Вход
ppkBB3cker v.2 © 2008-2014 @ PPK
[ Time : 0.030s | 18 Queries | GZIP : Off ]

Торрент трекер RUTOR.IN, Не можете зайти на rutor.org? Какой новый адрес рутор? Какое зеркало рутор? Не работает rutor.org и зеркала? Тогда наш торрент специально для вас. Rutor.in неофициальное зеркало rutor. В случае если у Вас заблокирован rutor или вдруг Вы не можете на него зайти, то Вы без труда сможете скачать бесплатно и без рекламы последние новинки кино, игр, сериалов и прочего у нас, на Rutor.in. Не нужно использовать прокси, чтобы зайти на рутор, достаточно воспользоваться нашим ресурсом. Все новые фильмы, игры, сериалы, книги и музыка за 2013 и 2014 годы через торрент бесплатно. Скачивайте фильмы в хорошем качестве, игры для пк, xbox, playstation без регистрации. У нас вы найдете новые Зарубежные сериалы и Русские сериалы 2013, 2014, 2015 годов. Оставайтесь с нами, качайте любимые фильмы, игры, сериалы, книги и музыку.