img image001 image001 image001 image001 image001 image001 image001 image001 image001 image001 image001 image001 image001 image001 image001

Planets Sun Sun Sun
Статистика раздачи
Автор: Nickolas3434 | Размер: 2.63 ГБ | Добавлен: 19 апр 2014
Раздают: 73    Качают: 19
Скачать торрент
Скачать торрент
Описание торрента

СообщениеДобавлено: 19 апр 2014 

Оригинальное название: Тысяча двести десять (1210)
Год выпуска: 2012
Жанр: Драма
Выпущено: Россия, студия "А-Гончуков"
Режиссер: Арсений Гончуков
В ролях: Роберт Вааб, Александр Сухинин, Виктор Немец, Юлия Дегтяренко, Александр Гавриков, Елизавета Лукьянова, Владимир Шинов, Артем Кобзев, Николай Бутенин, Елена Елесина

О фильме: «1210» — это история про маленького человека, который пытается добиться справедливости от государства. Но его попытки заранее обречены. Он — лишний, ненужный старик, против которого ополчилась даже его собственная семья. Обездоленному и обворованному ветерану войны, кажется, остаётся только сойти с ума. Но это ещё вопрос: он безумен в этом «нормальном» мире или «нормальный» мир сошел с ума от равнодушия? В итоге, отчаявшийся старик решается на страшный поступок. Поступок, который вряд ли можно будет оправдать.

Качество: BDRip 720p
Видео: MPEG-4 AVC, 4875 Кбит/с, 1280x720
Аудио: AC3, 2 ch, 192 Кбит/с
Размер: 2.63 ГБ
Продолжительность: 01:12:57
Язык: Русский

Исходник: Bishop (Кинозал)

Сравнение с исходником



Общее
Уникальный идентификатор : 199560720299716741958019334185303677053 (0x9621FF2765231E82BE7C4045E064187D)
Полное имя : D:Video1210.2012.x264.BDRip.720p.mkv
Формат : Matroska
Версия формата : Version 4 / Version 2
Размер файла : 2,63 Гбайт
Продолжительность : 1 ч. 12 м.
Общий поток : 5169 Кбит/сек
Дата кодирования : UTC 2014-04-18 06:21:24
Программа кодирования : mkvmerge v6.8.0 ('Theme for Great Cities') 64bit built on Mar 2 2014 21:34:26
Библиотека кодирования : libebml v1.3.0 + libmatroska v1.4.1

Видео
Идентификатор : 1
Формат : AVC
Формат/Информация : Advanced Video Codec
Профиль формата : High@L4.1
Параметр CABAC формата : Да
Параметр ReFrames формата : 9 кадров
Идентификатор кодека : V_MPEG4/ISO/AVC
Продолжительность : 1 ч. 12 м.
Битрейт : 4875 Кбит/сек
Ширина : 1280 пикселей
Высота : 720 пикселей
Соотношение сторон : 16:9
Режим частоты кадров : Постоянный
Частота кадров : 25,000 кадров/сек
Цветовое пространство : YUV
Субдискретизация насыщенности : 4:2:0
Битовая глубина : 8 бит
Тип развёртки : Прогрессивная
Бит/(Пиксели*Кадры) : 0.212
Размер потока : 2,48 Гбайт (94%)
Заголовок : BDRip -- STarankov
Библиотека кодирования : x264 core 138 r2358 9e941d1
Настройки программы : cabac=1 / ref=9 / deblock=1:-1:-1 / analyse=0x3:0x113 / me=umh / subme=10 / psy=1 / psy_rd=1.00:0.15 / mixed_ref=1 / me_range=32 / chroma_me=1 / trellis=2 / 8x8dct=1 / cqm=0 / deadzone=21,11 / fast_pskip=0 / chroma_qp_offset=-3 / threads=6 / lookahead_threads=1 / sliced_threads=0 / nr=0 / decimate=1 / interlaced=0 / bluray_compat=0 / constrained_intra=0 / bframes=8 / b_pyramid=2 / b_adapt=2 / b_bias=0 / direct=1 / weightb=1 / open_gop=0 / weightp=2 / keyint=240 / keyint_min=24 / scenecut=40 / intra_refresh=0 / rc_lookahead=40 / rc=crf / mbtree=0 / crf=17.0 / qcomp=0.60 / qpmin=0 / qpmax=69 / qpstep=4 / vbv_maxrate=40000 / vbv_bufsize=50000 / crf_max=0.0 / nal_hrd=none / ip_ratio=1.40 / pb_ratio=1.30 / aq=1:1.00
Язык : Russian
Default : Да
Forced : Нет

Аудио
Идентификатор : 2
Формат : AC-3
Формат/Информация : Audio Coding 3
Расширение режима : CM (complete main)
Параметр Endianness формата : Big
Идентификатор кодека : A_AC3
Продолжительность : 1 ч. 12 м.
Вид битрейта : Постоянный
Битрейт : 192 Кбит/сек
Каналы : 2 канала
Расположение каналов : Front: L R
Частота : 48,0 КГц
Битовая глубина : 16 бит
Метод сжатия : С потерями
Размер потока : 100 Мбайт (4%)
Заголовок : Original
Язык : Russian
Default : Да
Forced : Нет





   Похожие торренты   Торрент   Размер 
В этой теме нет новых непрочитанных сообщений. 1210 (2012) BDRip

253 | 65

1.46 ГБ

В этой теме нет новых непрочитанных сообщений. 1210 (2012) BDRip-AVC

102 | 42

1.45 ГБ

В этой теме нет новых непрочитанных сообщений. 1210 (2012) BDRip 1080p

73 | 43

4.35 ГБ

В этой теме нет новых непрочитанных сообщений. 1210 (2012) 1080p

59 | 55

24.97 ГБ

В этой теме нет новых непрочитанных сообщений. 1210 (2012) HDRip | КПК

171 | 39

642.54 МБ

В этой теме нет новых непрочитанных сообщений. 1210 / Тысяча двести десять (Арсений Гончуков) [2012, драма] HDRip

163 | 17

1.82 ГБ

В этой теме нет новых непрочитанных сообщений. Сломленные / Broken (2012) BDRip 720p by msltel | P

7 | 2

3.63 ГБ




Вы не можете начинать темы
Вы не можете отвечать на сообщения
Вы не можете редактировать свои сообщения
Вы не можете удалять свои сообщения
Вы не можете добавлять вложения

Перейти:  
Для Мосгорсуда, Роскомнадзора и рекламодателей: mosgorsud-torrent[собачка]yandex.ru
 Вход
ppkBB3cker v.2 © 2008-2014 @ PPK
[ Time : 0.380s | 17 Queries | GZIP : Off ]

Торрент трекер RUTOR.IN, Не можете зайти на rutor.org? Какой новый адрес рутор? Какое зеркало рутор? Не работает rutor.org и зеркала? Тогда наш торрент специально для вас. Rutor.in неофициальное зеркало rutor. В случае если у Вас заблокирован rutor или вдруг Вы не можете на него зайти, то Вы без труда сможете скачать бесплатно и без рекламы последние новинки кино, игр, сериалов и прочего у нас, на Rutor.in. Не нужно использовать прокси, чтобы зайти на рутор, достаточно воспользоваться нашим ресурсом. Все новые фильмы, игры, сериалы, книги и музыка за 2013 и 2014 годы через торрент бесплатно. Скачивайте фильмы в хорошем качестве, игры для пк, xbox, playstation без регистрации. У нас вы найдете новые Зарубежные сериалы и Русские сериалы 2013, 2014, 2015 годов. Оставайтесь с нами, качайте любимые фильмы, игры, сериалы, книги и музыку.