img image001 image001 image001 image001 image001 image001 image001 image001 image001 image001 image001 image001 image001 image001 image001

Planets Sun Sun Sun
Статистика раздачи
Автор: Nickolas3434 | Размер: 7.76 ГБ | Добавлен: 20 апр 2014
Раздают: 128    Качают: 56
Скачать торрент
Скачать торрент
Описание торрента

СообщениеДобавлено: 20 апр 2014 

Информация о фильме
Оригинальное название: Дубровский
Год выпуска: 2014
Жанр: драма
Режиссер: Александр Вартанов, Кирилл Михановский
В ролях: Данила Козловский, Клавдия Коршунова, Юрий Цурило, Александр Мезенцев, Игорь Гордин, Дмитрий Поднозов, Елена Дудина, Евгений Вакунов, Артём Кобзев, Любовь Сергеева, Никита Тезин
О фильме:
Владимир Дубровский — успешный столичный юрист и завсегдатай модных клубов, Маша Троекурова — выпускница английского колледжа и нежная дочь… Хозяева собственных судеб, они едва ли похожи на героев Пушкина. Но внезапная ссора их отцов решительно меняет жизнь Владимира и Маши — они погружаются в реальность, где действуют совсем другие законы…



Выпущено: Россия
Продолжительность: 02:10:28
Перевод: Оригинал

Файл
Кодек: x264
Качество: BDRip 1080p
Видео: 1920x1036, 7878 Kbps, 23.976 fps
Аудио: AC-3, 6 ch, 640 kbps (Rus)
Субтитры: русские форс., английские

Общее
Уникальный идентификатор : 200494998578873983518592467024349670046 (0x96D5EEA123B365149358A0CC8536AA9E)
Полное имя : Дубровский.2014.BDRip.1080p.Rus.mkv
Формат : Matroska
Версия формата : Version 2
Размер файла : 7,76 Гбайт
Продолжительность : 2 ч. 10 м.
Общий поток : 8518 Кбит/сек
Название фильма : Дубровский.2014
Дата кодирования : UTC 2014-04-19 16:03:02
Программа кодирования : mkvmerge v5.8.0 ('No Sleep / Pillow') built on Sep 2 2012 15:37:04
Библиотека кодирования : libebml v1.2.3 + libmatroska v1.3.0
Attachment : Yes

Видео
Идентификатор : 1
Формат : AVC
Формат/Информация : Advanced Video Codec
Профиль формата : High@L4.1
Параметр CABAC формата : Да
Параметр ReFrames формата : 4 кадра
Идентификатор кодека : V_MPEG4/ISO/AVC
Продолжительность : 2 ч. 10 м.
Битрейт : 7878 Кбит/сек
Ширина : 1920 пикселей
Высота : 1036 пикселей
Соотношение сторон : 1,85:1
Режим частоты кадров : Постоянный
Частота кадров : 24,000 кадра/сек
Цветовое пространство : YUV
Субдискретизация насыщенности : 4:2:0
Битовая глубина : 8 бит
Тип развёртки : Прогрессивная
Бит/(Пиксели*Кадры) : 0.165
Размер потока : 7,02 Гбайт (90%)
Заголовок : Rip by Boriy
Библиотека кодирования : x264 core 142 r2409 d6b4e63
Настройки программы : cabac=1 / ref=4 / deblock=1:-3:-3 / analyse=0x3:0x113 / me=umh / subme=11 / psy=1 / psy_rd=1.00:0.00 / mixed_ref=1 / me_range=32 / chroma_me=1 / trellis=2 / 8x8dct=1 / cqm=0 / deadzone=21,11 / fast_pskip=0 / chroma_qp_offset=-2 / threads=12 / lookahead_threads=1 / sliced_threads=0 / nr=0 / decimate=0 / interlaced=0 / bluray_compat=0 / constrained_intra=0 / bframes=6 / b_pyramid=2 / b_adapt=2 / b_bias=0 / direct=3 / weightb=1 / open_gop=0 / weightp=2 / keyint=240 / keyint_min=24 / scenecut=40 / intra_refresh=0 / rc=2pass / mbtree=0 / bitrate=7878 / ratetol=1.0 / qcomp=0.60 / qpmin=0 / qpmax=69 / qpstep=4 / cplxblur=20.0 / qblur=0.5 / ip_ratio=1.40 / pb_ratio=1.30 / aq=1:0.80
Язык : English
Default : Да
Forced : Нет

Аудио
Идентификатор : 2
Формат : AC-3
Формат/Информация : Audio Coding 3
Расширение режима : CM (complete main)
Параметр Endianness формата : Big
Идентификатор кодека : A_AC3
Продолжительность : 2 ч. 10 м.
Вид битрейта : Постоянный
Битрейт : 640 Кбит/сек
Каналы : 6 каналов
Расположение каналов : Front: L C R, Side: L R, LFE
Частота : 48,0 КГц
Битовая глубина : 16 бит
Метод сжатия : С потерями
Размер потока : 597 Мбайт (8%)
Заголовок : Оригинал
Язык : Russian
Default : Да
Forced : Нет

Текст #1
Идентификатор : 3
Формат : UTF-8
Идентификатор кодека : S_TEXT/UTF8
Идентификатор кодека/Информация : UTF-8 Plain Text
Заголовок : Forced
Язык : Russian
Default : Да
Forced : Да

Текст #2
Идентификатор : 4
Формат : UTF-8
Идентификатор кодека : S_TEXT/UTF8
Идентификатор кодека/Информация : UTF-8 Plain Text
Заголовок : Full
Язык : English
Default : Нет
Forced : Нет

Меню
00:00:00.000 : :Chapter 1
00:01:54.291 : :Chapter 2
00:14:32.875 : :Chapter 3
00:27:59.333 : :Chapter 4
00:43:19.291 : :Chapter 5
01:00:07.625 : :Chapter 6
01:15:44.833 : :Chapter 7
01:33:29.291 : :Chapter 8
01:52:33.875 : :Chapter 9
x264 [info]: frame I:1176 Avg QP:15.98 size:178675
x264 [info]: frame P:43853 Avg QP:18.85 size: 76922
x264 [info]: frame B:142842 Avg QP:20.86 size: 28864



   Похожие торренты   Торрент   Размер 
В этой теме нет новых непрочитанных сообщений. Дубровский (2014) BDRemux 1080p от ExKinoRay

60 | 50

21.59 ГБ

В этой теме нет новых непрочитанных сообщений. Дубровский (2014) HDTVRip 1080p | Трейлер

87 | 6

235.5 МБ

В этой теме нет новых непрочитанных сообщений. Дубровский (2014) BDRip | Лицензия

392 | 69

2.05 ГБ

В этой теме нет новых непрочитанных сообщений. Дубровский (2014) BDRip | Лицензия

1058 | 178

1.37 ГБ

В этой теме нет новых непрочитанных сообщений. Дубровский (2014) BDRip-AVC | iPad

46 | 27

2.04 ГБ

В этой теме нет новых непрочитанных сообщений. Дубровский (2014) BDRip от HQCLUB | Лицензия

123 | 41

2.18 ГБ

В этой теме нет новых непрочитанных сообщений. Дубровский (2014) BDRip-AVC от HELLYWOOD | Лицензия

136 | 78

2.18 ГБ




Вы не можете начинать темы
Вы не можете отвечать на сообщения
Вы не можете редактировать свои сообщения
Вы не можете удалять свои сообщения
Вы не можете добавлять вложения

Перейти:  
Для Мосгорсуда, Роскомнадзора и рекламодателей: mosgorsud-torrent[собачка]yandex.ru
 Вход
ppkBB3cker v.2 © 2008-2014 @ PPK
[ Time : 0.029s | 16 Queries | GZIP : Off ]

cron