img image001 image001 image001 image001 image001 image001 image001 image001 image001 image001 image001 image001 image001 image001 image001

Planets Sun Sun Sun
Статистика раздачи
Автор: Nickolas3434 | Размер: 744.36 МБ | Добавлен: 21 апр 2014
Раздают: 93    Качают: 26
Скачать торрент
Скачать торрент
Описание торрента

СообщениеДобавлено: 21 апр 2014 

Страна: СССР, Болгария
Производство:
Киностудия БОЯНА, Болгария Фильм, Госкино, Кинофонд СССР, Паритет, Сектор-Ф

Жанр: боевик, криминал
Год выпуска: 1990
Продолжительность: 01:30:44

Перевод: не требуется
Оригинальная аудиодорожка: русский
Cубтитры: нет

Режиссер: Рудольф Фрунтов

В ролях:
Василий Мищенко, Оксана Фандера, Игорь Янковский, Маргарита Сергеечева, Михаил Козаков, Римма Маркова, Андрей Гусев, Сергей Чурбаков, Наталья Позднякова, Евгений Дегтяренко...

Описание:
Офицер милиции Андрей выходит из тюрьмы, где провел три года, осужденный по ложному обвинению. Придя, в гости к старому другу, он неожиданно натыкается на его труп. Приходится вновь спасаться от милиции.
События нарастают стремительно. Андрей понимает, что за ним идет настоящая охота. Кому опять понадобилась его жизнь и свобода? На этот вопрос не может ответить ни его старый друг, майор милиции, ни Яна — внезапно ворвавшаяся в его жизнь любовь и надежда…





Исходник: DVD5 R5
Тип релиза: DVDRip
Контейнер: AVI

Видео: 624x464 (4:3), 25 fps, XviD ~ 1009 kbps avg, 0.139 bit/pixel
Аудио: 48 kHz, MP3 2.0, 128 kbps

Раздача от:
Общее
Полное имя : Duraki.umirayut.po.pyatnicam.1990.DVDRip-745_[New-team]_by_AVP_Studio.avi
Формат : AVI
Формат/Информация : Audio Video Interleave
Размер файла : 744 Мбайт
Продолжительность : 1 ч. 30 м.
Общий поток : 1147 Кбит/сек
Программа кодирования : VirtualDubModRus 1.5.10.2 (build 2542/release)
Библиотека кодирования : VirtualDubMod build 2542/release

Видео
Идентификатор : 0
Формат : MPEG-4 Visual
Профиль формата : Advanced Simple@L5
Параметр BVOP формата : 1
Параметр QPel формата : Нет
Параметр GMC формата : Без точки перехода
Параметр матрицы формата : Выборочная
Идентификатор кодека : XVID
Идентификатор кодека/Подсказка : XviD
Продолжительность : 1 ч. 30 м.
Битрейт : 1009 Кбит/сек
Ширина : 624 пикселя
Высота : 464 пикселя
Соотношение сторон : 4:3
Частота кадров : 25,000 кадров/сек
Цветовое пространство : YUV
Субдискретизация насыщенности : 4:2:0
Битовая глубина : 8 бит
Тип развёртки : Прогрессивная
Метод сжатия : С потерями
Бит/(Пиксели*Кадры) : 0.139
Размер потока : 655 Мбайт (88%)
Библиотека кодирования : XviD 73

Аудио
Идентификатор : 1
Формат : MPEG Audio
Версия формата : Version 1
Профиль формата : Layer 3
Идентификатор кодека : 55
Идентификатор кодека/Подсказка : MP3
Продолжительность : 1 ч. 30 м.
Вид битрейта : Постоянный
Битрейт : 128 Кбит/сек
Каналы : 2 канала
Частота : 48,0 КГц
Метод сжатия : С потерями
Размер потока : 83,0 Мбайт (11%)
Выравнивание : Соединение по промежуткам
Продолжительность промежутка : 40 мс. (1,00 видеокадр)
Время предзагрузки промежутка : 504 мс.
Библиотека кодирования : LAME3.99r
Настройки программы : -m s -V 4 -q 2 -lowpass 17 -b 128





   Похожие торренты   Торрент   Размер 
В этой теме нет новых непрочитанных сообщений. Дураки умирают по пятницам (1990) DVDRip от New-Team

70 | 22

1.46 ГБ

В этой теме нет новых непрочитанных сообщений. Дураки умирают по пятницам (1990) DVDRip-AVC от New-Team

157 | 43

1.46 ГБ

В этой теме нет новых непрочитанных сообщений. Дураки умирают по пятницам (1990) DVDRip

0 | 9

1.37 ГБ

В этой теме нет новых непрочитанных сообщений. Плохие парни всегда умирают / Bad Guys Always Die (2015) WEBRip-AVC от Batafurai Team | L2

158 | 10

1.47 ГБ

В этой теме нет новых непрочитанных сообщений. Когда умирают легенды / When the Legends Die (1972) DVDRip | A

23 | 12

1.46 ГБ

В этой теме нет новых непрочитанных сообщений. Герои не умирают / Chan sam ying hung (1998) DVDRip | L1

63 | 4

1.37 ГБ

В этой теме нет новых непрочитанных сообщений. Умирают только дважды / On ne meurt que deux fois (1985) DVDRip | P

84 | 7

1.46 ГБ




Вы не можете начинать темы
Вы не можете отвечать на сообщения
Вы не можете редактировать свои сообщения
Вы не можете удалять свои сообщения
Вы не можете добавлять вложения

Перейти:  
Для Мосгорсуда, Роскомнадзора и рекламодателей: mosgorsud-torrent[собачка]yandex.ru
 Вход
ppkBB3cker v.2 © 2008-2014 @ PPK
[ Time : 0.022s | 15 Queries | GZIP : Off ]

Торрент трекер RUTOR.IN, Не можете зайти на rutor.org? Какой новый адрес рутор? Какое зеркало рутор? Не работает rutor.org и зеркала? Тогда наш торрент специально для вас. Rutor.in неофициальное зеркало rutor. В случае если у Вас заблокирован rutor или вдруг Вы не можете на него зайти, то Вы без труда сможете скачать бесплатно и без рекламы последние новинки кино, игр, сериалов и прочего у нас, на Rutor.in. Не нужно использовать прокси, чтобы зайти на рутор, достаточно воспользоваться нашим ресурсом. Все новые фильмы, игры, сериалы, книги и музыка за 2013 и 2014 годы через торрент бесплатно. Скачивайте фильмы в хорошем качестве, игры для пк, xbox, playstation без регистрации. У нас вы найдете новые Зарубежные сериалы и Русские сериалы 2013, 2014, 2015 годов. Оставайтесь с нами, качайте любимые фильмы, игры, сериалы, книги и музыку.