img image001 image001 image001 image001 image001 image001 image001 image001 image001 image001 image001 image001 image001 image001 image001

Planets Sun Sun Sun
Статистика раздачи
Автор: Nickolas3434 | Размер: 1.37 ГБ | Добавлен: 28 апр 2014
Раздают: 637    Качают: 43
Скачать торрент
Скачать торрент
Описание торрента

СообщениеДобавлено: 28 апр 2014 

Информация о фильме
Название: Залётчики
Год выхода: 2014
Жанр: Комедия, приключения
Режиссер: Кирилл Кузин
В ролях: Илья Глинников, Вано Тугуши, Екатерина Кузнецова, Гоша Куценко, Вадим Галыгин, Виктор Вержбицкий, Алексей Горбунов, Юрий Цурило, Александр Веремюк, Карел Добры

О фильме:
Комедия о том, как два незадачливых героя, один из которых мечтал стать лётчиком, а другой актёром, случайно получают шанс исполнить обе мечты разом на съёмочной площадке нового фильма. Однако в первой же сцене они умудряются разбить вертолёт спонсора, что сулит им массу проблем. Чтобы возместить ущерб приятели вынуждены пуститься во все тяжкие - попытаться ограбить олигарха, заработать натурой и даже попробовать угнать вертолёт с американской авиабазы.



Страна: Россия
Студия: Вольга
Продолжительность: 01:19:11
Перевод: Не требуется

Файл
Кодек: XviD
Качество: WEB-DLRip
Видео: XviD, 704x400 (16:9), 2275 Кбит/с, 25 кадр/с
Звук: Dolby AC3, 192 Кбит/с, 48000 Гц, 2 канала (стерео)
Субтитры: Нет



Автор рипа - ivandubskoj

General
Complete name : Zaletchiki.2014.WEB-DLRip.avi
Format : AVI
Format/Info : Audio Video Interleave
File size : 1.37 GiB
Duration : 1h 19mn
Overall bit rate : 2 475 Kbps
Movie name : Залётчики (2014) WEB-DLRip
Genre : Комедия, приключения
Recorded date : 23.04.2014
Writing application : VirtualDubMod 1.5.10.3 | www.virtualdub-fr.org || (build 2550/release)
Writing library : VirtualDubMod build 2550/release
Copyright : rip by ivandubskoj

Video
ID : 0
Format : MPEG-4 Visual
Format profile : Advanced Simple@L5
Format settings, BVOP : 1
Format settings, QPel : No
Format settings, GMC : No warppoints
Format settings, Matrix : Default (MPEG)
Codec ID : XVID
Codec ID/Hint : XviD
Duration : 1h 19mn
Bit rate : 2 275 Kbps
Width : 704 pixels
Height : 400 pixels
Display aspect ratio : 16:9
Frame rate : 25.000 fps
Color space : YUV
Chroma subsampling : 4:2:0
Bit depth : 8 bits
Scan type : Progressive
Compression mode : Lossy
Bits/(Pixel*Frame) : 0.323
Stream size : 1.26 GiB (92%)
Writing library : XviD 73

Audio
ID : 1
Format : AC-3
Format/Info : Audio Coding 3
Format profile : Dolby Digital
Mode extension : CM (complete main)
Codec ID : 2000
Duration : 1h 19mn
Bit rate mode : Constant
Bit rate : 192 Kbps
Channel(s) : 2 channels
Channel positions : Front: L R
Sampling rate : 48.0 KHz
Bit depth : 16 bits
Compression mode : Lossy
Stream size : 109 MiB (8%)
Alignment : Split accross interleaves
Interleave, duration : 64 ms (1.60 video frames)
Interleave, preload duration : 500 ms
Title : Russian



   Похожие торренты   Торрент   Размер 
В этой теме нет новых непрочитанных сообщений. Залётчики (2014) WEB-DLRip | iTunes

409 | 65

1.37 ГБ

В этой теме нет новых непрочитанных сообщений. Залётчики (2014) WEB-DLRip-AVC от ExKinoRay

423 | 189

1.57 ГБ

В этой теме нет новых непрочитанных сообщений. Залётчики (2014) WEB-DLRip | Лицензия

1153 | 585

1.36 ГБ

В этой теме нет новых непрочитанных сообщений. Залётчики (2014) WEB-DLRip | КПК от ImperiaFilm

754 | 27

270.75 МБ

В этой теме нет новых непрочитанных сообщений. Залётчики (2014) WEBRip

6032 | 1163

1.37 ГБ

В этой теме нет новых непрочитанных сообщений. Залётчики (2014) WEB-Rip 720p

696 | 300

2.6 ГБ

В этой теме нет новых непрочитанных сообщений. Залётчики (2014) WEBRip

971 | 160

700.06 МБ




Вы не можете начинать темы
Вы не можете отвечать на сообщения
Вы не можете редактировать свои сообщения
Вы не можете удалять свои сообщения
Вы не можете добавлять вложения

Перейти:  
Для Мосгорсуда, Роскомнадзора и рекламодателей: mosgorsud-torrent[собачка]yandex.ru
 Вход
ppkBB3cker v.2 © 2008-2014 @ PPK
[ Time : 0.024s | 15 Queries | GZIP : Off ]

Торрент трекер RUTOR.IN, Не можете зайти на rutor.org? Какой новый адрес рутор? Какое зеркало рутор? Не работает rutor.org и зеркала? Тогда наш торрент специально для вас. Rutor.in неофициальное зеркало rutor. В случае если у Вас заблокирован rutor или вдруг Вы не можете на него зайти, то Вы без труда сможете скачать бесплатно и без рекламы последние новинки кино, игр, сериалов и прочего у нас, на Rutor.in. Не нужно использовать прокси, чтобы зайти на рутор, достаточно воспользоваться нашим ресурсом. Все новые фильмы, игры, сериалы, книги и музыка за 2013 и 2014 годы через торрент бесплатно. Скачивайте фильмы в хорошем качестве, игры для пк, xbox, playstation без регистрации. У нас вы найдете новые Зарубежные сериалы и Русские сериалы 2013, 2014, 2015 годов. Оставайтесь с нами, качайте любимые фильмы, игры, сериалы, книги и музыку.