img image001 image001 image001 image001 image001 image001 image001 image001 image001 image001 image001 image001 image001 image001 image001

Planets Sun Sun Sun
Статистика раздачи
Автор: Nickolas3434 | Размер: 2.19 ГБ | Добавлен: 28 апр 2014
Раздают: 6    Качают: 5
Скачать торрент
Скачать торрент
Описание торрента

СообщениеДобавлено: 28 апр 2014 

Страна: СССР, Италия, Чехословакия
Производство: Excelsior Film-TV, Filmové Studio Barrandov, Голос, Ленфильм

Жанр: драма, история
Год выпуска: 1990
Продолжительность: 02:07:02

Перевод: не требуется
Оригинальная аудиодорожка: русский
Cубтитры: нет

Режиссер: Виталий Мельников

В ролях:
Николай Еременко, Светлана Крючкова, Олег Табаков, Анна Самохина, Михаил Кононов, Александр Романцов, Александр Голобородько, Анатолий Шведерский, Светлана Смирнова, Александр Новиков, Баадур Цуладзе, Рамаз Иоселиани, Станислав Садальский...

Описание:
История о том, как претенденка на российский престол княжна Елизавета Тараканова (1745 — 1775), выдававшая себя за дочь императрицы Елизаветы Петровны, в результате предательства страстно любимого ею графа Орлова стала узницей Петропавловской крепости…





Исходник: DVD5 R5
Тип релиза: DVDRip
Контейнер: AVI

Видео: 688x512 (4:3), 25 fps, XviD ~ 2072 kbps avg, 0.235 bit/pixel
Аудио: 48 kHz, Dolby Digital AC3 5.1, 384 kbps

Раздача от:
Общее
Полное имя : Carskaya.ohota.1990.DVDRip_[New-team]_by_AVP_Studio.avi
Формат : AVI
Формат/Информация : Audio Video Interleave
Профиль формата : OpenDML
Размер файла : 2,19 Гбайт
Продолжительность : 2 ч. 7 м.
Общий поток : 2468 Кбит/сек
Программа кодирования : VirtualDubModRus 1.5.10.2 (build 2542/release)
Библиотека кодирования : VirtualDubMod build 2542/release

Видео
Идентификатор : 0
Формат : MPEG-4 Visual
Профиль формата : Advanced Simple@L5
Параметр BVOP формата : 1
Параметр QPel формата : Нет
Параметр GMC формата : Без точки перехода
Параметр матрицы формата : Выборочная
Идентификатор кодека : XVID
Идентификатор кодека/Подсказка : XviD
Продолжительность : 2 ч. 7 м.
Битрейт : 2072 Кбит/сек
Ширина : 688 пикселей
Высота : 512 пикселей
Соотношение сторон : 4:3
Частота кадров : 25,000 кадров/сек
Цветовое пространство : YUV
Субдискретизация насыщенности : 4:2:0
Битовая глубина : 8 бит
Тип развёртки : Прогрессивная
Метод сжатия : С потерями
Бит/(Пиксели*Кадры) : 0.235
Размер потока : 1,84 Гбайт (84%)
Библиотека кодирования : XviD 73

Аудио
Идентификатор : 1
Формат : AC-3
Формат/Информация : Audio Coding 3
Расширение режима : CM (complete main)
Параметр Endianness формата : Big
Идентификатор кодека : 2000
Продолжительность : 2 ч. 7 м.
Вид битрейта : Постоянный
Битрейт : 384 Кбит/сек
Каналы : 6 каналов
Расположение каналов : Front: L C R, Side: L R, LFE
Частота : 48,0 КГц
Битовая глубина : 16 бит
Метод сжатия : С потерями
Размер потока : 349 Мбайт (16%)
Выравнивание : Разделение по промежуткам
Продолжительность промежутка : 40 мс. (1,00 видеокадр)
Время предзагрузки промежутка : 500 мс





   Похожие торренты   Торрент   Размер 
В этой теме нет новых непрочитанных сообщений. Царская охота (1990) DVDRip-AVC от New-Team

39 | 5

2.19 ГБ

В этой теме нет новых непрочитанных сообщений. Царская охота (1990) DVDRip от New-Team

50 | 10

1.46 ГБ

В этой теме нет новых непрочитанных сообщений. Царская охота (1990) DVDRip

95 | 6

2.05 ГБ

В этой теме нет новых непрочитанных сообщений. Николай Кутеповъ - Царская охота на Руси [04 тома из 04] (1896-1911) DjVu

29 | 21

269.29 МБ

В этой теме нет новых непрочитанных сообщений. Охота на сутенера (1990) DVDRip

24 | 13

1.37 ГБ

В этой теме нет новых непрочитанных сообщений. Охота на сутенера (1990) DVDRip от Psichko66

65 | 32

1.46 ГБ

В этой теме нет новых непрочитанных сообщений. Охота на единорога (1989) DVDRip от New-Team

24 | 15

1.09 ГБ




Вы не можете начинать темы
Вы не можете отвечать на сообщения
Вы не можете редактировать свои сообщения
Вы не можете удалять свои сообщения
Вы не можете добавлять вложения

Перейти:  
Для Мосгорсуда, Роскомнадзора и рекламодателей: mosgorsud-torrent[собачка]yandex.ru
 Вход
ppkBB3cker v.2 © 2008-2014 @ PPK
[ Time : 1.209s | 17 Queries | GZIP : Off ]

Торрент трекер RUTOR.IN, Не можете зайти на rutor.org? Какой новый адрес рутор? Какое зеркало рутор? Не работает rutor.org и зеркала? Тогда наш торрент специально для вас. Rutor.in неофициальное зеркало rutor. В случае если у Вас заблокирован rutor или вдруг Вы не можете на него зайти, то Вы без труда сможете скачать бесплатно и без рекламы последние новинки кино, игр, сериалов и прочего у нас, на Rutor.in. Не нужно использовать прокси, чтобы зайти на рутор, достаточно воспользоваться нашим ресурсом. Все новые фильмы, игры, сериалы, книги и музыка за 2013 и 2014 годы через торрент бесплатно. Скачивайте фильмы в хорошем качестве, игры для пк, xbox, playstation без регистрации. У нас вы найдете новые Зарубежные сериалы и Русские сериалы 2013, 2014, 2015 годов. Оставайтесь с нами, качайте любимые фильмы, игры, сериалы, книги и музыку.