img image001 image001 image001 image001 image001 image001 image001 image001 image001 image001 image001 image001 image001 image001 image001

Planets Sun Sun Sun
Статистика раздачи
Автор: Nickolas3434 | Размер: 746.22 МБ | Добавлен: 28 апр 2014
Раздают: 63    Качают: 5
Скачать торрент
Скачать торрент
Описание торрента

СообщениеДобавлено: 28 апр 2014 

«Скоро твой мир изменится»




Страна: Россия / Централ Партнершип

Жанр: фэнтези, приключения
Год выпуска: 2013
Продолжительность: 01:31:22

Перевод: Не требуется
Cубтитры: нет
Оригинальная аудиодорожка: русский

Режиссер: Олег Асадулин

В ролях: Мария Пирогова, Павел Прилучный, Макар Запорожский, Евгения Брик, Александр Ратников, Владислав Абашин, Петр Семак, Алиса Хазанова, Валерий Опёнкин, Тимофей Носков...

Описание: Два мира живут параллельной жизнью – мир людей и Темный мир. Однако в то время, как люди продолжают жить в обычном ритме, тени начинают свободно проникать в наш мир. Эти существа, голодные и замерзшие, питаются жизненной силой человечества. Забирая его радость, любовь, тепло и положительные эмоции, они все больше набираются сил, так что Портал, разделяющий миры, эта тонкая грань, уже скоро может быть разрушена. Небольшая команда посвященных пытается дать отпор теням, но силы героев картины «Тёмный мир: Равновесие» слишком малы. Чтобы выжить, люди должны бороться сами. Лишь сумев обратиться к своим внутренним возможностям, к своим самым лучшим чувствам и эмоциям, они смогут спастись.



Качество: DVDRip / DVD5 R5
Формат: AVI

Видео: 656x384 (16:9), 25.000 fps, XviD ~ 1004 kbps avg, 0.166 bit/pixel
Аудио: 48 kHz, МР3, 2 ch, 128 kbps, русский

Замечание: В WEB-Dl-ках от iTunes, выпущенных до выхода лицензионного диска, из которого сделан этот рип, изображение обрезано по высоте сверху и снизу в сумме примерно на 31%, что приводит к эффекту "обрезанных голов" (при ширине кадра 720 пикселей его просто обрезали по вертикали в сумме на 96 пикселей). Об этом можно судить по аспекту рипов, сделанных из WEB-Dl и DVD5 R5. Аспект данного рипа 16:9, а в WEB-DlRip-ах - 2.40:1. Один кадр сравнения: http://screenshotcomparison.com/comparison/71756

Раздача от:
Общее
Полное имя : Temnyi.mir.Ravnovesie.2013.O.DVDRip.745MB_[New-Team]_by_avproh.avi
Формат : AVI
Формат/Информация : Audio Video Interleave
Размер файла : 746 Мбайт
Продолжительность : 1 ч. 31 м.
Общий поток : 1142 Кбит/сек
Программа кодирования : VirtualDubMod 1.5.10.3 | www.virtualdub-fr.org || (build 2550/release)
Библиотека кодирования : VirtualDubMod build 2550/release

Видео
Идентификатор : 0
Формат : MPEG-4 Visual
Профиль формата : Advanced Simple@L5
Параметр BVOP формата : 1
Параметр QPel формата : Нет
Параметр GMC формата : Без точки перехода
Параметр матрицы формата : Выборочная
Идентификатор кодека : XVID
Идентификатор кодека/Подсказка : XviD
Продолжительность : 1 ч. 31 м.
Битрейт : 1004 Кбит/сек
Ширина : 656 пикселей
Высота : 368 пикселей
Соотношение сторон : 16:9
Частота кадров : 25,000 кадров/сек
Цветовое пространство : YUV
Субдискретизация насыщенности : 4:2:0
Битовая глубина : 8 бит
Тип развёртки : Прогрессивная
Метод сжатия : С потерями
Бит/(Пиксели*Кадры) : 0.166
Размер потока : 656 Мбайт (88%)
Библиотека кодирования : XviD 73

Аудио
Идентификатор : 1
Формат : MPEG Audio
Версия формата : Version 1
Профиль формата : Layer 3
Идентификатор кодека : 55
Идентификатор кодека/Подсказка : MP3
Продолжительность : 1 ч. 31 м.
Вид битрейта : Постоянный
Битрейт : 128 Кбит/сек
Каналы : 2 канала
Частота : 48,0 КГц
Метод сжатия : С потерями
Размер потока : 83,7 Мбайт (11%)
Выравнивание : Соединение по промежуткам
Продолжительность промежутка : 40 мс. (1,00 видеокадр)
Время предзагрузки промежутка : 504 мс.





   Похожие торренты   Торрент   Размер 
В этой теме нет новых непрочитанных сообщений. Тёмный мир: Равновесие (2013) DVDRip от New-Team | лицензия

911 | 58

1.46 ГБ

В этой теме нет новых непрочитанных сообщений. Тёмный мир: Равновесие (2013) DVDRip-AVC от New-Team | лицензия

278 | 14

1.45 ГБ

В этой теме нет новых непрочитанных сообщений. Тёмный мир: Равновесие (2013) DVD5 R5 от New-Team | лицензия

251 | 12

4.28 ГБ

В этой теме нет новых непрочитанных сообщений. Тёмный мир: Равновесие (2013) DVDRip от Scarabey | Лицензия

64 | 10

743.68 МБ

В этой теме нет новых непрочитанных сообщений. Тёмный мир: Равновесие (2013) DVDRip от Scarabey | Лицензия

235 | 31

1.45 ГБ

В этой теме нет новых непрочитанных сообщений. Тёмный мир: Равновесие (2013) BDRip от HQCLUB | Лицензия

157 | 9

1.45 ГБ

В этой теме нет новых непрочитанных сообщений. Тёмный мир: Равновесие (2013) BDRip 720p | Лицензия

58 | 9

4 ГБ




Вы не можете начинать темы
Вы не можете отвечать на сообщения
Вы не можете редактировать свои сообщения
Вы не можете удалять свои сообщения
Вы не можете добавлять вложения

Перейти:  
Для Мосгорсуда, Роскомнадзора и рекламодателей: mosgorsud-torrent[собачка]yandex.ru
 Вход
ppkBB3cker v.2 © 2008-2014 @ PPK
[ Time : 0.023s | 15 Queries | GZIP : Off ]

Торрент трекер RUTOR.IN, Не можете зайти на rutor.org? Какой новый адрес рутор? Какое зеркало рутор? Не работает rutor.org и зеркала? Тогда наш торрент специально для вас. Rutor.in неофициальное зеркало rutor. В случае если у Вас заблокирован rutor или вдруг Вы не можете на него зайти, то Вы без труда сможете скачать бесплатно и без рекламы последние новинки кино, игр, сериалов и прочего у нас, на Rutor.in. Не нужно использовать прокси, чтобы зайти на рутор, достаточно воспользоваться нашим ресурсом. Все новые фильмы, игры, сериалы, книги и музыка за 2013 и 2014 годы через торрент бесплатно. Скачивайте фильмы в хорошем качестве, игры для пк, xbox, playstation без регистрации. У нас вы найдете новые Зарубежные сериалы и Русские сериалы 2013, 2014, 2015 годов. Оставайтесь с нами, качайте любимые фильмы, игры, сериалы, книги и музыку.