img image001 image001 image001 image001 image001 image001 image001 image001 image001 image001 image001 image001 image001 image001 image001

Planets Sun Sun Sun
Статистика раздачи
Автор: Nickolas3434 | Размер: 1.26 ГБ | Добавлен: 28 апр 2014
Раздают: 223    Качают: 20
Скачать торрент
Скачать торрент
Описание торрента

СообщениеДобавлено: 28 апр 2014 

Информация о фильме
Оригинальное название: Стартап
Год выпуска: 2014
Жанр: Биография, драма
Режиссер: Евгений Ткачук
В ролях: Евгений Ткачук, Шамиль Хаматов, Иева Андреевайте, Семён Морозов, Эммануил Виторган, Андрей Соколов, Дмитрий Богдан, Вера Панфилова, Антон Шурцов, Андрей Назимов

О фильме: Как в России честно заработать своим умом? Как добиться успеха и утвердить свое имя в мире бизнеса? Чем жертвует и что приобретает человек, который много лет стремится к своей цели? История создания с нуля крупного российского поискового портала. 20 лет риска, трудов, надежды, 20 лет дружбы…



Выпущено: Россия, Данаис Фильм
Продолжительность: : 01:26:08
Язык: Русский

Файл
Кодек: H264
Качество: WEB-DLRip (AVC)
Видео: MPEG-4 AVC, 1708 Кбит/с, 1024x464
Звук: AC3, 6 ch, 384 Кбит/с

General
Unique ID : 178180902036853894013254661369148215420 (0x860C64BAC83FD21082289D2905EC107C)
Complete name : C:Startap.2014.O.WEBDLRip.AVC.ExKinoRay.mkv
Format : Matroska
Format version : Version 2
File size : 1.26 GiB
Duration : 1h 26mn
Overall bit rate : 2 093 Kbps
Movie name : Startap from ExKinoRay
Encoded date : UTC 2014-04-25 20:02:51
Writing application : mkvmerge v4.9.1 ('Ich will') built on Jul 11 2011 23:53:15
Writing library : libebml v1.2.1 + libmatroska v1.1.1

Video
ID : 1
Format : AVC
Format/Info : Advanced Video Codec
Format profile : High@L4.1
Format settings, CABAC : Yes
Format settings, ReFrames : 8 frames
Codec ID : V_MPEG4/ISO/AVC
Duration : 1h 26mn
Bit rate : 1 708 Kbps
Width : 1 024 pixels
Height : 464 pixels
Display aspect ratio : 2.2:1
Frame rate mode : Constant
Frame rate : 25.000 fps
Color space : YUV
Chroma subsampling : 4:2:0
Bit depth : 8 bits
Scan type : Progressive
Bits/(Pixel*Frame) : 0.144
Stream size : 1.00 GiB (80%)
Title : Enigma-Vladislav71
Writing library : x264 core 116 r2044 392e762
Encoding settings : cabac=1 / ref=8 / deblock=1:-2:-2 / analyse=0x3:0x113 / me=umh / subme=9 / psy=1 / psy_rd=1.00:0.20 / mixed_ref=1 / me_range=32 / chroma_me=1 / trellis=2 / 8x8dct=1 / cqm=0 / deadzone=21,11 / fast_pskip=0 / chroma_qp_offset=-3 / threads=12 / sliced_threads=0 / nr=0 / decimate=0 / interlaced=0 / bluray_compat=0 / constrained_intra=0 / bframes=8 / b_pyramid=2 / b_adapt=2 / b_bias=0 / direct=3 / weightb=1 / open_gop=0 / weightp=2 / keyint=250 / keyint_min=25 / scenecut=40 / intra_refresh=0 / rc=2pass / mbtree=0 / bitrate=1708 / ratetol=1.0 / qcomp=0.60 / qpmin=0 / qpmax=69 / qpstep=4 / cplxblur=20.0 / qblur=0.5 / ip_ratio=1.40 / pb_ratio=1.30 / aq=1:1.00
Default : Yes
Forced : No

Audio
ID : 2
Format : AC-3
Format/Info : Audio Coding 3
Mode extension : CM (complete main)
Format settings, Endianness : Big
Codec ID : A_AC3
Duration : 1h 26mn
Bit rate mode : Constant
Bit rate : 384 Kbps
Channel(s) : 6 channels
Channel positions : Front: L C R, Side: L R, LFE
Sampling rate : 48.0 KHz
Bit depth : 16 bits
Compression mode : Lossy
Stream size : 236 MiB (18%)
Language : Russian
Default : Yes
Forced : No




Релиз от:

Авторы релиза:



   Похожие торренты   Торрент   Размер 
В этой теме нет новых непрочитанных сообщений. Стартап (2014) WEB-DLRip

1399 | 100

1.37 ГБ

В этой теме нет новых непрочитанных сообщений. Стартап (2014) WEB-DLRip от ivandubskoj

148 | 11

703.23 МБ

В этой теме нет новых непрочитанных сообщений. Стартап / StartUp [S01] (2016) WEB-DLRip | IdeaFilm

56 | 26

5.25 ГБ

В этой теме нет новых непрочитанных сообщений. Стартап / StartUp [S01] (2016) WEB-DLRip 720p | IdeaFilm

0 | 0

10.82 ГБ

В этой теме нет новых непрочитанных сообщений. Стартап / StartUp [01x01-06 из 10] (2016) WEB-DLRip от Kaztorrents | КПК | Newstudio

0 | 0

1.4 ГБ

В этой теме нет новых непрочитанных сообщений. Стартап / StartUp [S01] (2016) WEB-DLRip 720p | Jetvis Studio

0 | 0

9.47 ГБ

В этой теме нет новых непрочитанных сообщений. Стартап / StartUp [01x01-05 из 10] (2016) WEB-DLRip 720p | Jetvis Studio

0 | 0

4.85 ГБ




Вы не можете начинать темы
Вы не можете отвечать на сообщения
Вы не можете редактировать свои сообщения
Вы не можете удалять свои сообщения
Вы не можете добавлять вложения

Перейти:  
Для Мосгорсуда, Роскомнадзора и рекламодателей: mosgorsud-torrent[собачка]yandex.ru
 Вход
ppkBB3cker v.2 © 2008-2014 @ PPK
[ Time : 1.346s | 15 Queries | GZIP : Off ]

Торрент трекер RUTOR.IN, Не можете зайти на rutor.org? Какой новый адрес рутор? Какое зеркало рутор? Не работает rutor.org и зеркала? Тогда наш торрент специально для вас. Rutor.in неофициальное зеркало rutor. В случае если у Вас заблокирован rutor или вдруг Вы не можете на него зайти, то Вы без труда сможете скачать бесплатно и без рекламы последние новинки кино, игр, сериалов и прочего у нас, на Rutor.in. Не нужно использовать прокси, чтобы зайти на рутор, достаточно воспользоваться нашим ресурсом. Все новые фильмы, игры, сериалы, книги и музыка за 2013 и 2014 годы через торрент бесплатно. Скачивайте фильмы в хорошем качестве, игры для пк, xbox, playstation без регистрации. У нас вы найдете новые Зарубежные сериалы и Русские сериалы 2013, 2014, 2015 годов. Оставайтесь с нами, качайте любимые фильмы, игры, сериалы, книги и музыку.