img image001 image001 image001 image001 image001 image001 image001 image001 image001 image001 image001 image001 image001 image001 image001

Planets Sun Sun Sun
Статистика раздачи
Автор: Nickolas3434 | Размер: 703.23 МБ | Добавлен: 28 апр 2014
Раздают: 148    Качают: 11
Скачать торрент
Скачать торрент
Описание торрента

СообщениеДобавлено: 28 апр 2014 

Информация о фильме
Название: Стартап
Год выхода: 2014
Жанр: Драма, биография
Режиссёр: Евгений Ткачук
В ролях: Евгений Ткачук, Шамиль Хаматов, Иева Андреевайте, Семён Морозов, Эммануил Виторган, Андрей Соколов, Дмитрий Богдан, Вера Панфилова, Антон Шурцов, Андрей Назимов

О фильме: Как в России честно заработать своим умом? Как добиться успеха и утвердить своё имя в мире бизнеса? Чем жертвует и что приобретает человек, который много лет стремится к своей цели? История создания с нуля крупного российского поискового портала. 20 лет риска, трудов, надежды, 20 лет дружбы…



Выпущено: Данаис Фильм, Россия
Продолжительность: 01:26:04
Перевод: Не требуется

Файл
Качество: WEB-DLRip (Исходник: WEB-DL (720p))
Видео: XviD, 640x288 (2.222), 1005 Кбит/с, 25 кадр/с
Аудио: Русский, MP3, 48000 Гц, 128 Кбит/с, 2 канала (Стерео)
Субтитры: Нет



Автор рипа - ivandubskoj

General
Complete name : Startap.2014.WEB-DLRip.700MB.avi
Format : AVI
Format/Info : Audio Video Interleave
File size : 703 MiB
Duration : 1h 26mn
Overall bit rate : 1 142 Kbps
Movie name : Стартап (2014) WEB-DLRip
Genre : Драма, биография
Recorded date : 26.04.2014
Writing application : VirtualDubMod 1.5.10.3 | www.virtualdub-fr.org || (build 2550/release)
Writing library : VirtualDubMod build 2550/release
Copyright : rip by ivandubskoj

Video
ID : 0
Format : MPEG-4 Visual
Format profile : Advanced Simple@L5
Format settings, BVOP : 1
Format settings, QPel : No
Format settings, GMC : No warppoints
Format settings, Matrix : Default (MPEG)
Codec ID : XVID
Codec ID/Hint : XviD
Duration : 1h 26mn
Bit rate : 1 005 Kbps
Width : 640 pixels
Height : 288 pixels
Display aspect ratio : 2.222
Frame rate : 25.000 fps
Color space : YUV
Chroma subsampling : 4:2:0
Bit depth : 8 bits
Scan type : Progressive
Compression mode : Lossy
Bits/(Pixel*Frame) : 0.218
Stream size : 618 MiB (88%)
Writing library : XviD 73

Audio
ID : 1
Format : MPEG Audio
Format version : Version 1
Format profile : Layer 3
Codec ID : 55
Codec ID/Hint : MP3
Duration : 1h 26mn
Bit rate mode : Constant
Bit rate : 128 Kbps
Channel(s) : 2 channels
Sampling rate : 48.0 KHz
Compression mode : Lossy
Stream size : 78.8 MiB (11%)
Alignment : Aligned on interleaves
Interleave, duration : 40 ms (1.00 video frame)
Interleave, preload duration : 504 ms
Title : Russian
Writing library : LAME3.99r
Encoding settings : -m s -V 4 -q 2 -lowpass 17 -b 128



   Похожие торренты   Торрент   Размер 
В этой теме нет новых непрочитанных сообщений. Стартап (2014) WEB-DLRip

1399 | 100

1.37 ГБ

В этой теме нет новых непрочитанных сообщений. Стартап (2014) WEB-DLRip-AVC от ExKinoRay

223 | 20

1.26 ГБ

В этой теме нет новых непрочитанных сообщений. Стартап / StartUp [S01] (2016) WEB-DLRip | IdeaFilm

56 | 26

5.25 ГБ

В этой теме нет новых непрочитанных сообщений. Стартап / StartUp [S01] (2016) WEB-DLRip 720p | IdeaFilm

0 | 0

10.82 ГБ

В этой теме нет новых непрочитанных сообщений. Стартап / StartUp [S01] (2016) WEB-DLRip 720p | Jetvis Studio

0 | 0

9.47 ГБ

В этой теме нет новых непрочитанных сообщений. Стартап / StartUp [01x01-06 из 10] (2016) WEB-DLRip от Kaztorrents | КПК | Newstudio

0 | 0

1.4 ГБ

В этой теме нет новых непрочитанных сообщений. Стартап / StartUp [01x01-05 из 10] (2016) WEB-DLRip 720p | Jetvis Studio

0 | 0

4.85 ГБ




Вы не можете начинать темы
Вы не можете отвечать на сообщения
Вы не можете редактировать свои сообщения
Вы не можете удалять свои сообщения
Вы не можете добавлять вложения

Перейти:  
Для Мосгорсуда, Роскомнадзора и рекламодателей: mosgorsud-torrent[собачка]yandex.ru
 Вход
ppkBB3cker v.2 © 2008-2014 @ PPK
[ Time : 0.040s | 16 Queries | GZIP : Off ]

Торрент трекер RUTOR.IN, Не можете зайти на rutor.org? Какой новый адрес рутор? Какое зеркало рутор? Не работает rutor.org и зеркала? Тогда наш торрент специально для вас. Rutor.in неофициальное зеркало rutor. В случае если у Вас заблокирован rutor или вдруг Вы не можете на него зайти, то Вы без труда сможете скачать бесплатно и без рекламы последние новинки кино, игр, сериалов и прочего у нас, на Rutor.in. Не нужно использовать прокси, чтобы зайти на рутор, достаточно воспользоваться нашим ресурсом. Все новые фильмы, игры, сериалы, книги и музыка за 2013 и 2014 годы через торрент бесплатно. Скачивайте фильмы в хорошем качестве, игры для пк, xbox, playstation без регистрации. У нас вы найдете новые Зарубежные сериалы и Русские сериалы 2013, 2014, 2015 годов. Оставайтесь с нами, качайте любимые фильмы, игры, сериалы, книги и музыку.