img image001 image001 image001 image001 image001 image001 image001 image001 image001 image001 image001 image001 image001 image001 image001

Planets Sun Sun Sun
Статистика раздачи
Автор: Nickolas3434 | Размер: 741.49 МБ | Добавлен: 28 апр 2014
Раздают: 30    Качают: 6
Скачать торрент
Скачать торрент
Описание торрента

СообщениеДобавлено: 28 апр 2014 

Страна: СССР
Производство: Киев-АСК

Жанр: детектив
Год выпуска: 1991
Продолжительность: 01:12:35

Перевод: не требуется
Оригинальная аудиодорожка: русский
Cубтитры: нет

Режиссер: Григорий Кохан

В ролях:
Евгений Жариков, Олег Масленников, Нина Колчина-Бунь, Давид Бабаев, Римас Моркунас, Евгений Смирнов, Вячеслав Езепов, Бимболат Ватаев, Александр Быструшкин, Степан Олексенко...

Описание:
В Алуште совершено разбойное нападение на инкассаторов, оперативникам известна только кличка одного из нападавших — «Шакал». Тем временем, в Киев из Алушты на поезде возвращается компания людей, один из которых убит. Прибывший на поезд сыщик Петров, после проведения следственных действий увязывает эти два преступления и понимает, что Шакал один из пассажиров, и именно он убил потерпевшего. Под подозрением оказываются все члены компании, поскольку так или иначе у каждого из них был мотив для убийства, но кто из них Шакал? Эту головоломку Петров должен решить до прихода поезда в Киев, чтобы оперативно задержать бандита…





Исходник: DVD5 R5
Тип релиза: DVDRip
Контейнер: AVI

Видео: 672x496 (4:3), 25 fps, XviD ~ 1290 kbps avg, 0.155 bit/pixel
Аудио: 48 kHz, MP3 2.0, 128 kbps

Раздача от:
Общее
Полное имя : Ubit.Shakala.1991.DVDRip-745_[New-team]_by_AVP_Studio.avi
Формат : AVI
Формат/Информация : Audio Video Interleave
Размер файла : 741 Мбайт
Продолжительность : 1 ч. 12 м.
Общий поток : 1428 Кбит/сек
Программа кодирования : VirtualDubModRus 1.5.10.2 (build 2542/release)
Библиотека кодирования : VirtualDubMod build 2542/release

Видео
Идентификатор : 0
Формат : MPEG-4 Visual
Профиль формата : Advanced Simple@L5
Параметр BVOP формата : 1
Параметр QPel формата : Нет
Параметр GMC формата : Без точки перехода
Параметр матрицы формата : Выборочная
Идентификатор кодека : XVID
Идентификатор кодека/Подсказка : XviD
Продолжительность : 1 ч. 12 м.
Битрейт : 1290 Кбит/сек
Ширина : 672 пикселя
Высота : 496 пикселей
Соотношение сторон : 4:3
Частота кадров : 25,000 кадров/сек
Цветовое пространство : YUV
Субдискретизация насыщенности : 4:2:0
Битовая глубина : 8 бит
Тип развёртки : Прогрессивная
Метод сжатия : С потерями
Бит/(Пиксели*Кадры) : 0.155
Размер потока : 670 Мбайт (90%)
Библиотека кодирования : XviD 73

Аудио
Идентификатор : 1
Формат : MPEG Audio
Версия формата : Version 1
Профиль формата : Layer 3
Идентификатор кодека : 55
Идентификатор кодека/Подсказка : MP3
Продолжительность : 1 ч. 12 м.
Вид битрейта : Постоянный
Битрейт : 128 Кбит/сек
Каналы : 2 канала
Частота : 48,0 КГц
Метод сжатия : С потерями
Размер потока : 66,5 Мбайт (9%)
Выравнивание : Соединение по промежуткам
Продолжительность промежутка : 40 мс. (1,00 видеокадр)
Время предзагрузки промежутка : 504 мс.
Библиотека кодирования : LAME3.99r
Настройки программы : -m s -V 4 -q 2 -lowpass 17 -b 128





   Похожие торренты   Торрент   Размер 
В этой теме нет новых непрочитанных сообщений. Убить Шакала (1991) DVDRip-AVC от New-Team

44 | 16

1.46 ГБ

В этой теме нет новых непрочитанных сообщений. Убить Шакала (1991) DVDRip от Odyzic и MyWorldFilm

8 | 4

1.36 ГБ

В этой теме нет новых непрочитанных сообщений. Убить Шакала (1991) DVD5

1 | 36

3.61 ГБ

В этой теме нет новых непрочитанных сообщений. Убить дракона (1988) DVDRip от New-Team

172 | 7

2.19 ГБ

В этой теме нет новых непрочитанных сообщений. Убить дракона (1988) DVDRip от New-Team

203 | 12

1.46 ГБ

В этой теме нет новых непрочитанных сообщений. День Шакала / The Day of the Jackal (1973) DVDRip

34 | 3

1.4 ГБ

В этой теме нет новых непрочитанных сообщений. День Шакала / The Day of the Jackal (1973) DVDRip от NovaLan

345 | 7

2.2 ГБ




Вы не можете начинать темы
Вы не можете отвечать на сообщения
Вы не можете редактировать свои сообщения
Вы не можете удалять свои сообщения
Вы не можете добавлять вложения

Перейти:  
Для Мосгорсуда, Роскомнадзора и рекламодателей: mosgorsud-torrent[собачка]yandex.ru
 Вход
ppkBB3cker v.2 © 2008-2014 @ PPK
[ Time : 0.040s | 16 Queries | GZIP : Off ]

Торрент трекер RUTOR.IN, Не можете зайти на rutor.org? Какой новый адрес рутор? Какое зеркало рутор? Не работает rutor.org и зеркала? Тогда наш торрент специально для вас. Rutor.in неофициальное зеркало rutor. В случае если у Вас заблокирован rutor или вдруг Вы не можете на него зайти, то Вы без труда сможете скачать бесплатно и без рекламы последние новинки кино, игр, сериалов и прочего у нас, на Rutor.in. Не нужно использовать прокси, чтобы зайти на рутор, достаточно воспользоваться нашим ресурсом. Все новые фильмы, игры, сериалы, книги и музыка за 2013 и 2014 годы через торрент бесплатно. Скачивайте фильмы в хорошем качестве, игры для пк, xbox, playstation без регистрации. У нас вы найдете новые Зарубежные сериалы и Русские сериалы 2013, 2014, 2015 годов. Оставайтесь с нами, качайте любимые фильмы, игры, сериалы, книги и музыку.