img image001 image001 image001 image001 image001 image001 image001 image001 image001 image001 image001 image001 image001 image001 image001

Planets Sun Sun Sun
Статистика раздачи
Автор: Nickolas3434 | Размер: 1.46 ГБ | Добавлен: 29 апр 2014
Раздают: 768    Качают: 24
Скачать торрент
Скачать торрент
Описание торрента

СообщениеДобавлено: 29 апр 2014 

Информация о фильме
Название: Тариф Новогодний
Год выхода: 2008
Жанр: Фэнтези, комедия, приключения, мелодрама
Режиссёр: Евгений Бедарев
В ролях: Валерия Ланская, Максим Матвеев, Светлана Суханова, Евгений Славский, Борис Корчевников, Роман Полянский, Мирослава Карпович, Екатерина Маликова, Марк Богатырёв, Станислав Беляев, Лана Щербакова, Татьяна Васильева, Михаил Пореченков, Дмитрий Дюжев, Валерий Меладзе, Юрий Цурило, Фёдор Добронравов, Анастасия Цветаева, Михаил Полицеймако, Николай Бандурин, Галина Кашковская, Сергей Дорогов, Ольга Альченко, Марианна Шульц, Ирина Медведева, Нонна Гришаева, Владимир Крылов, Татьяна Орлова, Мария Аронова

О фильме: Новогодняя ночь всегда полна чудес и сюрпризов. Чудеса нашего времени часто происходят благодаря техническому прогрессу, хотя и не без участия Деда Мороза, который нынче может оказаться простым продавцом телефона Мечты… Так и у героев этой истории: Андрей купил новый телефон, а под бой курантов набрал наугад номер, чтобы поздравить с Новым годом совершенно незнакомого человека такая у них была традиция с друзьями на Новый год.



Выпущено: Профит, Телесто / Россия
Продолжительность: 01:26:08
Перевод: Не требуется

Файл
Качество: BDRip (Исходник: Blu-Ray (1080p) от HDClub)
Видео: XviD, 720x304 (2.35:1), 1976 Кбит/с, 23,976 кадр/с
Аудио: Русский, Dolby AC3, 48000 Гц, 448 Кбит/с, 6 каналов (5.1)



Автор рипа - ivandubskoj

General
Complete name : Tarif.Novogodniy.2008.BDRip.avi
Format : AVI
Format/Info : Audio Video Interleave
File size : 1.46 GiB
Duration : 1h 26mn
Overall bit rate : 2 432 Kbps
Movie name : Тариф Новогодний (2008) BDRip
Genre : Фэнтези, комедия, приключения
Recorded date : 28.04.2014
Writing application : VirtualDubMod 1.5.10.3 (build 2550/release)
Writing library : VirtualDubMod build 2550/release
Copyright : rip by ivandubskoj

Video
ID : 0
Format : MPEG-4 Visual
Format profile : Advanced Simple@L5
Format settings, BVOP : 1
Format settings, QPel : No
Format settings, GMC : No warppoints
Format settings, Matrix : Default (MPEG)
Codec ID : XVID
Codec ID/Hint : XviD
Duration : 1h 26mn
Bit rate : 1 976 Kbps
Width : 720 pixels
Height : 304 pixels
Display aspect ratio : 2.35:1
Frame rate : 23.976 fps
Color space : YUV
Chroma subsampling : 4:2:0
Bit depth : 8 bits
Scan type : Progressive
Compression mode : Lossy
Bits/(Pixel*Frame) : 0.377
Stream size : 1.19 GiB (81%)
Writing library : XviD 73

Audio
ID : 1
Format : AC-3
Format/Info : Audio Coding 3
Mode extension : CM (complete main)
Codec ID : 2000
Duration : 1h 26mn
Bit rate mode : Constant
Bit rate : 448 Kbps
Channel(s) : 6 channels
Channel positions : Front: L C R, Side: L R, LFE
Sampling rate : 48.0 KHz
Bit depth : 16 bits
Compression mode : Lossy
Stream size : 276 MiB (18%)
Alignment : Split accross interleaves
Interleave, duration : 64 ms (1.53 video frames)
Interleave, preload duration : 500 ms
Title : Russian





   Похожие торренты   Торрент   Размер 
В этой теме нет новых непрочитанных сообщений. Тариф Новогодний (2008) BDRip от M.I.B

1 | 3

1.46 ГБ

В этой теме нет новых непрочитанных сообщений. Тариф Новогодний (2008) BDRip от HQ-ViDEO

57 | 2

1.46 ГБ

В этой теме нет новых непрочитанных сообщений. Тариф Новогодний (2008) BDRip от HQCLUB

7 | 4

1.45 ГБ

В этой теме нет новых непрочитанных сообщений. Тариф Новогодний (2008) BDRip от HELLYWOOD

30 | 5

1.45 ГБ

В этой теме нет новых непрочитанных сообщений. Тариф Новогодний (2008) BDRip 1080p

1 | 6

4.37 ГБ

В этой теме нет новых непрочитанных сообщений. Тариф Новогодний (2008) BDRip-AVC от potroks

387 | 21

2.2 ГБ

В этой теме нет новых непрочитанных сообщений. Тариф Новогодний (2008) BDRip-AVC от HQ-ViDEO

19 | 4

2.07 ГБ




Вы не можете начинать темы
Вы не можете отвечать на сообщения
Вы не можете редактировать свои сообщения
Вы не можете удалять свои сообщения
Вы не можете добавлять вложения

Перейти:  
Для Мосгорсуда, Роскомнадзора и рекламодателей: mosgorsud-torrent[собачка]yandex.ru
 Вход
ppkBB3cker v.2 © 2008-2014 @ PPK
[ Time : 0.071s | 17 Queries | GZIP : Off ]

cron