img image001 image001 image001 image001 image001 image001 image001 image001 image001 image001 image001 image001 image001 image001 image001

Planets Sun Sun Sun
Статистика раздачи
Автор: Nickolas3434 | Размер: 1.46 ГБ | Добавлен: 30 апр 2014
Раздают: 186    Качают: 32
Скачать торрент
Скачать торрент
Описание торрента

СообщениеДобавлено: 30 апр 2014 

Страна: СССР
Производство: Ленфильм
Жанр: криминал, детектив
Год выпуска: 1966
Продолжительность: 01:32:54

Перевод: не требуется
Оригинальная аудиодорожка: русский
Cубтитры: нет

Режиссер: Герберт Раппапорт

В ролях:
Александр Збруев - Алёшин, Земфира Цахилова - Тоня, Игорь Горбачёв - Николаев, Петр Горин - Шондыш, Алексей Кожевников - Андреев, Никита Подгорный - Лебедянский, Валентина Сперантова - мать Лебедянского, Станислав Чекан - Сабодаж, Лариса Барабанова - Кнопка, Владимир Кенигсон - Рубцов, Галина Никулина - Юлия, Людмила Чурсина - Инка-эстонка, Александр Январев - Сиротин, Бруно Фрейндлих - Блинов, Лев Лемке - Коллега Лебедянского...

Описание:
Ответственного комсомольца Алешина райком направляет работать в ОБХСС. Однако молодой человек абсолютно не чувствует в себе призвания к этому делу и подает рапорт об увольнении. Начальник готов удовлетворить его просьбу, но только после того, как Алешин выполнит одно очень важное задание. Дело в следующем: у двух преступников, занимающихся валютными махинациями, обнаружены билеты на один сеанс в кинотеатр «Ударник». Казалось бы ничего криминального, однако эти два использованных билета оказываются на одно и то же место, но на разные дни. Оперативникам это кажется странным, и начальство поручает Алешину все выяснить. Молодой человек начинает раскручивать это дело. Самый обыкновенный билет на киносеанс неожиданно оказывается паролем преступников. Алешин с помощью этой информации внедряется в банду…





Исходник: DVD5 R5
Тип релиза: DVDRip-AVC
Контейнер: MKV

Видео: 720->1024x438 (2,35:1), 25 fps, H264 ~ 2049 kbps avg, 0.260 bit/pixel
Аудио: 48 kHz, Dolby AC3 2.0, 192 kbps

Раздача от:
Общее
Полное имя : Dva.bileta.na.dnevnoy.seans.1966.DVDRip-AVC_[New-team]_by_AVP_Studio.mkv
Формат : Matroska
Версия формата : Version 2
Размер файла : 1,46 Гбайт
Продолжительность : 1 ч. 32 м.
Общий поток : 2243 Кбит/сек
Дата кодирования : UTC 2014-04-28 16:53:09
Программа кодирования : mkvmerge v6.1.0 ('Old Devil') built on Mar 4 2013 09:10:42
Библиотека кодирования : libebml v1.3.0 + libmatroska v1.4.0

Видео
Идентификатор : 1
Формат : AVC
Формат/Информация : Advanced Video Codec
Профиль формата : High@L4.1
Параметр CABAC формата : Да
Параметр ReFrames формата : 8 кадров
Идентификатор кодека : V_MPEG4/ISO/AVC
Продолжительность : 1 ч. 32 м.
Битрейт : 2049 Кбит/сек
Ширина : 720 пикселей
Высота : 438 пикселей
Соотношение сторон : 2,35:1
Соотношение сторон в оригинале : 2,35:1
Режим частоты кадров : Постоянный
Частота кадров : 25,000 кадров/сек
Цветовое пространство : YUV
Субдискретизация насыщенности : 4:2:0
Битовая глубина : 8 бит
Тип развёртки : Прогрессивная
Бит/(Пиксели*Кадры) : 0.260
Размер потока : 1,30 Гбайт (89%)
Библиотека кодирования : x264 core 138 r2356 a1d3d17
Настройки программы : cabac=1 / ref=8 / deblock=1:-3:-2 / analyse=0x3:0x113 / me=umh / subme=10 / psy=1 / psy_rd=1.00:0.05 / mixed_ref=1 / me_range=32 / chroma_me=1 / trellis=2 / 8x8dct=1 / cqm=0 / deadzone=21,11 / fast_pskip=0 / chroma_qp_offset=-3 / threads=3 / lookahead_threads=1 / sliced_threads=0 / nr=0 / decimate=0 / interlaced=0 / bluray_compat=0 / constrained_intra=0 / bframes=8 / b_pyramid=2 / b_adapt=2 / b_bias=0 / direct=3 / weightb=1 / open_gop=0 / weightp=2 / keyint=240 / keyint_min=24 / scenecut=40 / intra_refresh=0 / rc_lookahead=40 / rc=2pass / mbtree=1 / bitrate=2049 / ratetol=1.0 / qcomp=0.60 / qpmin=0 / qpmax=69 / qpstep=4 / cplxblur=20.0 / qblur=0.5 / ip_ratio=1.40 / aq=1:1.00
Default : Да
Forced : Нет

Аудио
Идентификатор : 2
Формат : AC-3
Формат/Информация : Audio Coding 3
Расширение режима : CM (complete main)
Параметр Endianness формата : Big
Идентификатор кодека : A_AC3
Продолжительность : 1 ч. 32 м.
Вид битрейта : Постоянный
Битрейт : 192 Кбит/сек
Каналы : 2 канала
Расположение каналов : Front: L R
Частота : 48,0 КГц
Битовая глубина : 16 бит
Метод сжатия : С потерями
Размер потока : 128 Мбайт (9%)
Default : Да
Forced : Нет





   Похожие торренты   Торрент   Размер 
В этой теме нет новых непрочитанных сообщений. Два билета на дневной сеанс (1966) DVDRip от Youtracker

0 | 2

745.22 МБ

В этой теме нет новых непрочитанных сообщений. Два билета на дневной сеанс (1966) DVDRip от Youtracker

4 | 1

1.46 ГБ

В этой теме нет новых непрочитанных сообщений. Два билета на дневной сеанс (1967) DVDRip

4 | 2

1.37 ГБ

В этой теме нет новых непрочитанных сообщений. Дневной сеанс / Утренник / Matinee (1993) BDRip от HQCLUB

50 | 8

1.45 ГБ

В этой теме нет новых непрочитанных сообщений. Дневной свет / Daylight (1996) BDRip 720p от Element team

26 | 4

2.19 ГБ

В этой теме нет новых непрочитанных сообщений. Опасный сеанс / Seance (2006) DVDRip

4 | 5

1.37 ГБ

В этой теме нет новых непрочитанных сообщений. Снежная королева (1966) DVDRip от New-Team

439 | 35

1.46 ГБ




Вы не можете начинать темы
Вы не можете отвечать на сообщения
Вы не можете редактировать свои сообщения
Вы не можете удалять свои сообщения
Вы не можете добавлять вложения

Перейти:  
Для Мосгорсуда, Роскомнадзора и рекламодателей: mosgorsud-torrent[собачка]yandex.ru
 Вход
ppkBB3cker v.2 © 2008-2014 @ PPK
[ Time : 0.043s | 16 Queries | GZIP : Off ]

Торрент трекер RUTOR.IN, Не можете зайти на rutor.org? Какой новый адрес рутор? Какое зеркало рутор? Не работает rutor.org и зеркала? Тогда наш торрент специально для вас. Rutor.in неофициальное зеркало rutor. В случае если у Вас заблокирован rutor или вдруг Вы не можете на него зайти, то Вы без труда сможете скачать бесплатно и без рекламы последние новинки кино, игр, сериалов и прочего у нас, на Rutor.in. Не нужно использовать прокси, чтобы зайти на рутор, достаточно воспользоваться нашим ресурсом. Все новые фильмы, игры, сериалы, книги и музыка за 2013 и 2014 годы через торрент бесплатно. Скачивайте фильмы в хорошем качестве, игры для пк, xbox, playstation без регистрации. У нас вы найдете новые Зарубежные сериалы и Русские сериалы 2013, 2014, 2015 годов. Оставайтесь с нами, качайте любимые фильмы, игры, сериалы, книги и музыку.
cron