img image001 image001 image001 image001 image001 image001 image001 image001 image001 image001 image001 image001 image001 image001 image001

Planets Sun Sun Sun
Статистика раздачи
Автор: Nickolas3434 | Размер: 746.03 МБ | Добавлен: 30 апр 2014
Раздают: 44    Качают: 17
Скачать торрент
Скачать торрент
Описание торрента

СообщениеДобавлено: 30 апр 2014 


Страна: Россия, Финляндия / "Дьюти Фри Продакшнс"

Жанр: ужасы, триллер, комедия
Год выпуска: 2012
Продолжительность: 01:07:02

Перевод: Не требуется
Cубтитры: нет
Оригинальная аудиодорожка: русский

Режиссер: Михаил Брашинский

В ролях: Татьяна Колганова, Тимофей Елецкий, Татьяна Рябоконь, Сату Паавола

Описание: Группа русских туристов отправляется в Финляндию за покупками — а попадет в лапы людоедов. Оказывается, есть один день в году, день летнего солнцестояния, когда каждый финн по древней традиции должен съесть иностранца, и сегодня — этот день. Фильм снят на мобильный телефон одним из героев — 15-летним мальчиком, которому мама на окончание 8-го класса подарила мобильник и поездку в Финляндию.



Качество: DVDRip / DVD5 R5
Формат: AVI

Видео: 720x400 (16:9), 25.000 fps, XviD, ~1418 kbps avg, 0.197 bit/pix
Аудио: 48 kHz, MP3, 2 ch, 128 kbps, русский

Раздача от:
Общее
Полное имя : Shoping-tur.2012.O.DVDRip.745MB_[New-Team]_by_avproh.avi
Формат : AVI
Формат/Информация : Audio Video Interleave
Размер файла : 746 Мбайт
Продолжительность : 1 ч. 7 м.
Общий поток : 1556 Кбит/сек
Программа кодирования : VirtualDubMod 1.5.10.3 | www.virtualdub-fr.org || (build 2550/release)
Библиотека кодирования : VirtualDubMod build 2550/release

Видео
Идентификатор : 0
Формат : MPEG-4 Visual
Профиль формата : Advanced Simple@L5
Параметр BVOP формата : 1
Параметр QPel формата : Нет
Параметр GMC формата : Без точки перехода
Параметр матрицы формата : Выборочная
Идентификатор кодека : XVID
Идентификатор кодека/Подсказка : XviD
Продолжительность : 1 ч. 7 м.
Битрейт : 1418 Кбит/сек
Ширина : 720 пикселей
Высота : 400 пикселей
Соотношение сторон : 16:9
Частота кадров : 25,000 кадров/сек
Цветовое пространство : YUV
Субдискретизация насыщенности : 4:2:0
Битовая глубина : 8 бит
Тип развёртки : Прогрессивная
Метод сжатия : С потерями
Бит/(Пиксели*Кадры) : 0.197
Размер потока : 680 Мбайт (91%)
Библиотека кодирования : XviD 73

Аудио
Идентификатор : 1
Формат : MPEG Audio
Версия формата : Version 1
Профиль формата : Layer 3
Идентификатор кодека : 55
Идентификатор кодека/Подсказка : MP3
Продолжительность : 1 ч. 7 м.
Вид битрейта : Постоянный
Битрейт : 128 Кбит/сек
Каналы : 2 канала
Частота : 48,0 КГц
Метод сжатия : С потерями
Размер потока : 61,4 Мбайт (8%)
Выравнивание : Соединение по промежуткам
Продолжительность промежутка : 40 мс. (1,00 видеокадр)
Время предзагрузки промежутка : 504 мс.





   Похожие торренты   Торрент   Размер 
В этой теме нет новых непрочитанных сообщений. Шопинг-тур (2012) DVDRip-AVC от New-Team | лицензия

30 | 24

1.38 ГБ

В этой теме нет новых непрочитанных сообщений. Шопинг-тур (2012) DVDRip от New-Team | лицензия

106 | 35

1.34 ГБ

В этой теме нет новых непрочитанных сообщений. Шопинг-тур (2012) DVD5 R5 от New-Team | лицензия

10 | 14

3.51 ГБ

В этой теме нет новых непрочитанных сообщений. Шопинг-тур / Shoping-tur (2012) WEB-DLRip

45 | 4

1.27 ГБ

В этой теме нет новых непрочитанных сообщений. Шопинг-тур / Shoping-tur (2012) WEB-DL 720p

7 | 2

2.25 ГБ

В этой теме нет новых непрочитанных сообщений. Безумный шопинг / Sale Frenzy (2012) PC

20 | 3

75.38 МБ

В этой теме нет новых непрочитанных сообщений. Дарья Донцова - Шопинг В Воздушном Замке (2008) (2012) MP3

64 | 2

29.11 МБ




Вы не можете начинать темы
Вы не можете отвечать на сообщения
Вы не можете редактировать свои сообщения
Вы не можете удалять свои сообщения
Вы не можете добавлять вложения

Перейти:  
Для Мосгорсуда, Роскомнадзора и рекламодателей: mosgorsud-torrent[собачка]yandex.ru
 Вход
ppkBB3cker v.2 © 2008-2014 @ PPK
[ Time : 0.069s | 16 Queries | GZIP : Off ]

Торрент трекер RUTOR.IN, Не можете зайти на rutor.org? Какой новый адрес рутор? Какое зеркало рутор? Не работает rutor.org и зеркала? Тогда наш торрент специально для вас. Rutor.in неофициальное зеркало rutor. В случае если у Вас заблокирован rutor или вдруг Вы не можете на него зайти, то Вы без труда сможете скачать бесплатно и без рекламы последние новинки кино, игр, сериалов и прочего у нас, на Rutor.in. Не нужно использовать прокси, чтобы зайти на рутор, достаточно воспользоваться нашим ресурсом. Все новые фильмы, игры, сериалы, книги и музыка за 2013 и 2014 годы через торрент бесплатно. Скачивайте фильмы в хорошем качестве, игры для пк, xbox, playstation без регистрации. У нас вы найдете новые Зарубежные сериалы и Русские сериалы 2013, 2014, 2015 годов. Оставайтесь с нами, качайте любимые фильмы, игры, сериалы, книги и музыку.