img image001 image001 image001 image001 image001 image001 image001 image001 image001 image001 image001 image001 image001 image001 image001

Planets Sun Sun Sun
Статистика раздачи
Автор: Nickolas3434 | Размер: 17.86 ГБ | Добавлен: 02 май 2014
Раздают: 36    Качают: 83
Скачать торрент
Скачать торрент
Описание торрента

СообщениеДобавлено: 02 май 2014 

Информация о фильме

Оригинальное название: Спираль
Год выпуска: 2014
Жанр: Боевик
Выпущено: Россия, студия «Питон»
Режиссер: Андрей Волгин
В ролях: Константин Крюков, Анатолий Руденко, Вениамин Смехов, Александр Яцко, Никита Высоцкий, Кларисса Барская, Константин Глушков, Владимир Стержаков, Марина Куделинская, Рената Пиотровски
О фильме: Главный герой истории — Алексей, талантливый программист из Новосибирска, приезжает в Москву и становится членом закрытого полулегального элитного клуба под названием «Спираль». Как новичку ему крупно везет, и он выигрывает одну экстремальную игру клуба за другой, получая сумасшедшие гонорары. В него влюбляется такая девушка, о какой он даже не мог мечтать. Но в одночасье красивый мир вокруг него рушится, и он влипает в крупные неприятности — его обвиняют в ограблении банка, любимая девушка не верит в его невиновность, и в довершении всего его пытаются убить…

Файл

Качество: Blu-Ray Remux (1080i)
Видео: MPEG-4 AVC, 20286 Кбит/с, 1920x1080, 24 кадр/с
Аудио: AC3, 6 ch, 640 Кбит/с, DTS, 6 ch, 1509 Кбит/с
Размер: 17.86 ГБ
Продолжительность: 01:37:40
Язык: Русский
За исходник, большое спасибо HDClub
Сохранены оригинальные чаптеры как на Blu-Ray.
Общее
Уникальный идентификатор : 226527222473838706124710934734497125618 (0xAA6B8E5C7255E0C8A04A63540BE014F2)
Полное имя : D:ЗагрузкиSpiral.2013.BDRemux.(1080p).ExKinoRay.mkv
Формат : Matroska
Версия формата : Version 2
Размер файла : 17,9 Гбайт
Продолжительность : 1 ч. 37 м.
Режим общего битрейта : Переменный
Общий поток : 26,2 Мбит/сек
Название фильма : Cпираль.2013.Сборкa: ollan
Дата кодирования : UTC 2014-05-01 17:05:18
Программа кодирования : mkvmerge v5.6.0 ('Kenya Kane') built on May 27 2012 16:44:04
Библиотека кодирования : libebml v1.2.3 + libmatroska v1.3.0

Видео
Идентификатор : 1
Формат : AVC
Формат/Информация : Advanced Video Codec
Профиль формата : High@L4.1
Параметр CABAC формата : Да
Параметр ReFrames формата : 4 кадра
Параметр GOP формата : M=3, N=25
Идентификатор кодека : V_MPEG4/ISO/AVC
Продолжительность : 1 ч. 37 м.
Вид битрейта : Переменный
Битрейт : 23,5 Мбит/сек
Максимальный битрейт : 35,0 Мбит/сек
Ширина : 1920 пикселей
Высота : 1080 пикселей
Соотношение сторон : 16:9
Режим частоты кадров : Постоянный
Частота кадров : 25,000 кадров/сек
Стандарт вещания : PAL
Цветовое пространство : YUV
Субдискретизация насыщенности : 4:2:0
Битовая глубина : 8 бит
Тип развёртки : Чересстрочная
Порядок развёртки : Верхнее поле первое
Бит/(Пиксели*Кадры) : 0.453
Размер потока : 16,0 Гбайт (90%)
Default : Да
Forced : Нет
Основные цвета : BT.709
Характеристики трансфера : BT.709
Коэффициенты матрицы : BT.709

Аудио #1
Идентификатор : 2
Формат : AC-3
Формат/Информация : Audio Coding 3
Расширение режима : CM (complete main)
Параметр Endianness формата : Big
Идентификатор кодека : A_AC3
Продолжительность : 1 ч. 37 м.
Вид битрейта : Постоянный
Битрейт : 640 Кбит/сек
Каналы : 6 каналов
Расположение каналов : Front: L C R, Side: L R, LFE
Частота : 48,0 КГц
Битовая глубина : 16 бит
Метод сжатия : С потерями
Размер потока : 447 Мбайт (2%)
Язык : Russian
Default : Да
Forced : Нет

Аудио #2
Идентификатор : 3
Формат : DTS
Формат/Информация : Digital Theater Systems
Режим : 16
Параметр Endianness формата : Big
Идентификатор кодека : A_DTS
Продолжительность : 1 ч. 37 м.
Вид битрейта : Постоянный
Битрейт : 1510 Кбит/сек
Каналы : 6 каналов
Расположение каналов : Front: L C R, Side: L R, LFE
Частота : 48,0 КГц
Битовая глубина : 24 бит
Метод сжатия : С потерями
Размер потока : 1,03 Гбайт (6%)
Язык : Russian
Default : Нет
Forced : Нет

Меню
00:00:00.000 : :Chapter 01
00:08:29.359 : :Chapter 02
00:19:05.400 : :Chapter 03
00:24:32.880 : :Chapter 04
00:32:32.280 : :Chapter 05
00:39:00.520 : :Chapter 06
00:48:09.280 : :Chapter 07
00:56:34.480 : :Chapter 08
01:04:08.400 : :Chapter 09
01:12:22.800 : :Chapter 10
01:21:00.240 : :Chapter 11
01:33:03.880 : :Chapter 12
01:37:40.120 : :Chapter 13







Релиз от: Сборка:



   Похожие торренты   Торрент   Размер 
В этой теме нет новых непрочитанных сообщений. Шерлок / Sherlock [S03] (2014) BDRemux 1080i от ExKinoRay | D | Лицензия

35 | 24

54.68 ГБ

В этой теме нет новых непрочитанных сообщений. Скорый Москва-Россия (2014) BDRemux 1080i от ExKinoRay | Лицензия

154 | 44

19.08 ГБ

В этой теме нет новых непрочитанных сообщений. Страховщик / Automata (2014) BDRemux 1080i от ExKinoRay | Rus Transfer | D | Лицензия

15 | 4

17.8 ГБ

В этой теме нет новых непрочитанных сообщений. Уличный боец: Кулак убийцы / Street Fighter: Assassin's Fist (2014) BDRemux 1080i от ExKinoRay | А

73 | 31

34.01 ГБ

В этой теме нет новых непрочитанных сообщений. Спираль (2014) HDRip-AVC от ExKinoRay | Лицензия

141 | 121

1.68 ГБ

В этой теме нет новых непрочитанных сообщений. Спираль (2014) WEB-DLRip-AVC от ExKinoRay | iTunes

178 | 54

1.67 ГБ

В этой теме нет новых непрочитанных сообщений. Распутин (2013) BDRemux 1080i от ExKinoRay

7 | 2

8.27 ГБ




Вы не можете начинать темы
Вы не можете отвечать на сообщения
Вы не можете редактировать свои сообщения
Вы не можете удалять свои сообщения
Вы не можете добавлять вложения

Перейти:  
Для Мосгорсуда, Роскомнадзора и рекламодателей: mosgorsud-torrent[собачка]yandex.ru
 Вход
ppkBB3cker v.2 © 2008-2014 @ PPK
[ Time : 4.013s | 15 Queries | GZIP : Off ]

Торрент трекер RUTOR.IN, Не можете зайти на rutor.org? Какой новый адрес рутор? Какое зеркало рутор? Не работает rutor.org и зеркала? Тогда наш торрент специально для вас. Rutor.in неофициальное зеркало rutor. В случае если у Вас заблокирован rutor или вдруг Вы не можете на него зайти, то Вы без труда сможете скачать бесплатно и без рекламы последние новинки кино, игр, сериалов и прочего у нас, на Rutor.in. Не нужно использовать прокси, чтобы зайти на рутор, достаточно воспользоваться нашим ресурсом. Все новые фильмы, игры, сериалы, книги и музыка за 2013 и 2014 годы через торрент бесплатно. Скачивайте фильмы в хорошем качестве, игры для пк, xbox, playstation без регистрации. У нас вы найдете новые Зарубежные сериалы и Русские сериалы 2013, 2014, 2015 годов. Оставайтесь с нами, качайте любимые фильмы, игры, сериалы, книги и музыку.