img image001 image001 image001 image001 image001 image001 image001 image001 image001 image001 image001 image001 image001 image001 image001

Planets Sun Sun Sun
Статистика раздачи
Автор: Nickolas3434 | Размер: 1.46 ГБ | Добавлен: 02 май 2014
Раздают: 106    Качают: 55
Скачать торрент
Скачать торрент
Описание торрента

СообщениеДобавлено: 02 май 2014 


Страна: СССР / Ленфильм

Жанр: мелодрама, комедия
Год выпуска: 1985
Продолжительность: 01:25:04

Перевод: Не требуется
Cубтитры: нет
Оригинальная аудиодорожка: русский

Режиссер: Виталий Мельников

В ролях: Вера Глаголева, Виктор Проскурин, Вера Васильева, Николай Рыбников, Юрий Демич, Светлана Крючкова, Федор Одиноков, Татьяна Рудина, Валентина Березуцкая, Валерий Кузин...

Описание: Эмансипированная девушка-фотокорреспондент Елена немного безрассудна, беспечна и вечно опаздывает. Она абсолютно беззащитна и одинока. Однажды судьба предоставляет девушке шанс выйти замуж за капитана: она знакомится с Александром Блиновым, пограничником, немногим за тридцать. Мужчина мечтает о большой любви, не привык к легкому флирту и ждет от Елены того же. Однако после ссоры с девушкой рассудительный Александр возвращается на заставу и предоставляет Елене шанс действовать самостоятельно. Захочет ли она вернуть своего капитана?



Качество: DVDRip / DVD5 R5
Формат: AVI

Видео: 720x528 (4:3), 25.000 fps, XviD, ~2250 kbps avg, 0.234 bit/pix
Аудио: 48 kHz, Dolby AC3, 2 ch, 192 kbps, русский

Раздача от:
Общее
Полное имя : Vyiti.zamuj.za.kapitana.1985.O.DVDRip_[New-Team]_by_avproh.avi
Формат : AVI
Формат/Информация : Audio Video Interleave
Размер файла : 1,46 Гбайт
Продолжительность : 1 ч. 25 м.
Общий поток : 2451 Кбит/сек
Программа кодирования : VirtualDubModRus 1.5.10.2 (build 2542/release)
Библиотека кодирования : VirtualDubMod build 2542/release

Видео
Идентификатор : 0
Формат : MPEG-4 Visual
Профиль формата : Advanced Simple@L5
Параметр BVOP формата : 1
Параметр QPel формата : Нет
Параметр GMC формата : Без точки перехода
Параметр матрицы формата : Выборочная
Идентификатор кодека : XVID
Идентификатор кодека/Подсказка : XviD
Продолжительность : 1 ч. 25 м.
Битрейт : 2250 Кбит/сек
Ширина : 720 пикселей
Высота : 528 пикселей
Соотношение сторон : 4:3
Частота кадров : 25,000 кадров/сек
Цветовое пространство : YUV
Субдискретизация насыщенности : 4:2:0
Битовая глубина : 8 бит
Тип развёртки : Прогрессивная
Метод сжатия : С потерями
Бит/(Пиксели*Кадры) : 0.237
Размер потока : 1,34 Гбайт (92%)
Библиотека кодирования : XviD 73

Аудио
Идентификатор : 1
Формат : AC-3
Формат/Информация : Audio Coding 3
Расширение режима : CM (complete main)
Параметр Endianness формата : Big
Идентификатор кодека : 2000
Продолжительность : 1 ч. 25 м.
Вид битрейта : Постоянный
Битрейт : 192 Кбит/сек
Каналы : 2 канала
Расположение каналов : Front: L R
Частота : 48,0 КГц
Битовая глубина : 16 бит
Метод сжатия : С потерями
Размер потока : 117 Мбайт (8%)
Выравнивание : Разделение по промежуткам
Продолжительность промежутка : 40 мс. (1,00 видеокадр)
Время предзагрузки промежутка : 500 мс.






   Похожие торренты   Торрент   Размер 
В этой теме нет новых непрочитанных сообщений. Выйти замуж за капитана (1985) DVDRip от New-Team

56 | 12

1.46 ГБ

В этой теме нет новых непрочитанных сообщений. Выйти замуж за капитана (1985) DVD5 R5 от New-Team | лицензия

16 | 24

3.86 ГБ

В этой теме нет новых непрочитанных сообщений. Выйти замуж за капитана (1985) DVDRip

0 | 4

799.06 МБ

В этой теме нет новых непрочитанных сообщений. Выйти замуж за капитана (1985) DVDRip

15 | 3

1.36 ГБ

В этой теме нет новых непрочитанных сообщений. Выйти замуж за капитана (1985) DVDRip-AVC от ExKinoRay

119 | 10

1.54 ГБ

В этой теме нет новых непрочитанных сообщений. Как выйти замуж за 3 дня / Leap Year (2010) BDRip (720p) от NOLIMITS-TEAM

24 | 3

2.18 ГБ

В этой теме нет новых непрочитанных сообщений. Как выйти замуж за миллиардера / Chalet Girl (2011) BDRip 720p от Element team

22 | 1

2.19 ГБ




Вы не можете начинать темы
Вы не можете отвечать на сообщения
Вы не можете редактировать свои сообщения
Вы не можете удалять свои сообщения
Вы не можете добавлять вложения

Перейти:  
Для Мосгорсуда, Роскомнадзора и рекламодателей: mosgorsud-torrent[собачка]yandex.ru
 Вход
ppkBB3cker v.2 © 2008-2014 @ PPK
[ Time : 1.337s | 17 Queries | GZIP : Off ]

Торрент трекер RUTOR.IN, Не можете зайти на rutor.org? Какой новый адрес рутор? Какое зеркало рутор? Не работает rutor.org и зеркала? Тогда наш торрент специально для вас. Rutor.in неофициальное зеркало rutor. В случае если у Вас заблокирован rutor или вдруг Вы не можете на него зайти, то Вы без труда сможете скачать бесплатно и без рекламы последние новинки кино, игр, сериалов и прочего у нас, на Rutor.in. Не нужно использовать прокси, чтобы зайти на рутор, достаточно воспользоваться нашим ресурсом. Все новые фильмы, игры, сериалы, книги и музыка за 2013 и 2014 годы через торрент бесплатно. Скачивайте фильмы в хорошем качестве, игры для пк, xbox, playstation без регистрации. У нас вы найдете новые Зарубежные сериалы и Русские сериалы 2013, 2014, 2015 годов. Оставайтесь с нами, качайте любимые фильмы, игры, сериалы, книги и музыку.