img image001 image001 image001 image001 image001 image001 image001 image001 image001 image001 image001 image001 image001 image001 image001

Planets Sun Sun Sun
Статистика раздачи
Автор: Nickolas3434 | Размер: 1.68 ГБ | Добавлен: 02 май 2014
Раздают: 141    Качают: 121
Скачать торрент
Скачать торрент
Описание торрента

СообщениеДобавлено: 02 май 2014 

Информация о фильме
Оригинальное название: Спираль
Год выпуска: 2014
Жанр: Боевик
Выпущено: Россия, студия «Питон»
Режиссер: Андрей Волгин
В ролях: Константин Крюков, Анатолий Руденко, Вениамин Смехов, Александр Яцко, Никита Высоцкий, Кларисса Барская, Константин Глушков, Владимир Стержаков, Марина Куделинская, Рената Пиотровски

О фильме: Главный герой истории — Алексей, талантливый программист из Новосибирска, приезжает в Москву и становится членом закрытого полулегального элитного клуба под названием «Спираль». Как новичку ему крупно везет, и он выигрывает одну экстремальную игру клуба за другой, получая сумасшедшие гонорары. В него влюбляется такая девушка, о какой он даже не мог мечтать. Но в одночасье красивый мир вокруг него рушится, и он влипает в крупные неприятности — его обвиняют в ограблении банка, любимая девушка не верит в его невиновность, и в довершении всего его пытаются убить…



Продолжительность: 01:37:30
Язык: Русский

Файл
Кодек: H264
Качество: HDRip (AVC)
Видео: MPEG-4 AVC, 2015 Кбит/с, 1024x428
Звук: AC3, 6 ch, 448 Кбит/с

General
Unique ID : 184815050687791898974259657227850480759 (0x8B0A1582F1D28FCA9B4A2242D81BFC77)
Complete name : C:Spiral.2014.O.HDRip.AVC.ExKinoRay.mkv
Format : Matroska
Format version : Version 2
File size : 1.68 GiB
Duration : 1h 37mn
Overall bit rate : 2 464 Kbps
Movie name : Spiral from ExKinoRay
Encoded date : UTC 2014-05-01 22:17:54
Writing application : mkvmerge v4.9.1 ('Ich will') built on Jul 11 2011 23:53:15
Writing library : libebml v1.2.1 + libmatroska v1.1.1

Video
ID : 1
Format : AVC
Format/Info : Advanced Video Codec
Format profile : High@L4.1
Format settings, CABAC : Yes
Format settings, ReFrames : 9 frames
Codec ID : V_MPEG4/ISO/AVC
Duration : 1h 37mn
Bit rate : 2 015 Kbps
Width : 1 024 pixels
Height : 428 pixels
Display aspect ratio : 2.40:1
Frame rate mode : Constant
Frame rate : 25.000 fps
Color space : YUV
Chroma subsampling : 4:2:0
Bit depth : 8 bits
Scan type : Progressive
Bits/(Pixel*Frame) : 0.184
Stream size : 1.34 GiB (80%)
Title : Enigma-Vladislav71
Writing library : x264 core 116 r2044 392e762
Encoding settings : cabac=1 / ref=9 / deblock=1:-2:-2 / analyse=0x3:0x113 / me=umh / subme=10 / psy=1 / psy_rd=1.00:0.20 / mixed_ref=1 / me_range=48 / chroma_me=1 / trellis=2 / 8x8dct=1 / cqm=0 / deadzone=21,11 / fast_pskip=0 / chroma_qp_offset=-3 / threads=12 / sliced_threads=0 / nr=0 / decimate=0 / interlaced=0 / bluray_compat=0 / constrained_intra=0 / bframes=8 / b_pyramid=2 / b_adapt=2 / b_bias=0 / direct=3 / weightb=1 / open_gop=0 / weightp=2 / keyint=250 / keyint_min=25 / scenecut=40 / intra_refresh=0 / rc=2pass / mbtree=0 / bitrate=2015 / ratetol=1.0 / qcomp=0.60 / qpmin=0 / qpmax=69 / qpstep=4 / cplxblur=20.0 / qblur=0.5 / ip_ratio=1.40 / pb_ratio=1.30 / aq=1:1.00
Default : Yes
Forced : No

Audio
ID : 2
Format : AC-3
Format/Info : Audio Coding 3
Mode extension : CM (complete main)
Format settings, Endianness : Big
Codec ID : A_AC3
Duration : 1h 37mn
Bit rate mode : Constant
Bit rate : 448 Kbps
Channel(s) : 6 channels
Channel positions : Front: L C R, Side: L R, LFE
Sampling rate : 48.0 KHz
Bit depth : 16 bits
Compression mode : Lossy
Stream size : 313 MiB (18%)
Language : Russian
Default : Yes
Forced : No

Menu
00:00:00.000 : ru:
00:08:29.359 : ru:
00:19:05.400 : ru:
00:24:32.880 : ru:
00:32:32.280 : ru:
00:39:00.520 : ru:
00:48:09.280 : ru:
00:56:34.480 : ru:
01:04:08.400 : ru:
01:12:22.800 : ru:
01:21:00.240 : ru:
01:33:03.880 : ru:






Релиз от:

Авторы релиза:



   Похожие торренты   Торрент   Размер 
В этой теме нет новых непрочитанных сообщений. Спираль (2014) HDRip | Лицензия

309 | 74

700.99 МБ

В этой теме нет новых непрочитанных сообщений. Спираль (2014) HDRip | Лицензия

1178 | 344

1.37 ГБ

В этой теме нет новых непрочитанных сообщений. Спираль (2014) WEB-DLRip-AVC от ExKinoRay | iTunes

178 | 54

1.67 ГБ

В этой теме нет новых непрочитанных сообщений. Спираль (2014) BDRemux 1080i от ExKinoRay

36 | 83

17.86 ГБ

В этой теме нет новых непрочитанных сообщений. Спираль (2014) Blu-ray | Лицензия

41 | 39

19.06 ГБ

В этой теме нет новых непрочитанных сообщений. Спираль (2014) HDRip

356 | 30

745.75 МБ

В этой теме нет новых непрочитанных сообщений. Спираль (2014) BDRip 1080p | Лицензия

96 | 47

7.09 ГБ




Вы не можете начинать темы
Вы не можете отвечать на сообщения
Вы не можете редактировать свои сообщения
Вы не можете удалять свои сообщения
Вы не можете добавлять вложения

Перейти:  
Для Мосгорсуда, Роскомнадзора и рекламодателей: mosgorsud-torrent[собачка]yandex.ru
 Вход
ppkBB3cker v.2 © 2008-2014 @ PPK
[ Time : 0.060s | 15 Queries | GZIP : Off ]

Торрент трекер RUTOR.IN, Не можете зайти на rutor.org? Какой новый адрес рутор? Какое зеркало рутор? Не работает rutor.org и зеркала? Тогда наш торрент специально для вас. Rutor.in неофициальное зеркало rutor. В случае если у Вас заблокирован rutor или вдруг Вы не можете на него зайти, то Вы без труда сможете скачать бесплатно и без рекламы последние новинки кино, игр, сериалов и прочего у нас, на Rutor.in. Не нужно использовать прокси, чтобы зайти на рутор, достаточно воспользоваться нашим ресурсом. Все новые фильмы, игры, сериалы, книги и музыка за 2013 и 2014 годы через торрент бесплатно. Скачивайте фильмы в хорошем качестве, игры для пк, xbox, playstation без регистрации. У нас вы найдете новые Зарубежные сериалы и Русские сериалы 2013, 2014, 2015 годов. Оставайтесь с нами, качайте любимые фильмы, игры, сериалы, книги и музыку.