img image001 image001 image001 image001 image001 image001 image001 image001 image001 image001 image001 image001 image001 image001 image001

Planets Sun Sun Sun
Статистика раздачи
Автор: Nickolas3434 | Размер: 1.46 ГБ | Добавлен: 03 май 2014
Раздают: 479    Качают: 56
Скачать торрент
Скачать торрент
Описание торрента

СообщениеДобавлено: 03 май 2014 


Страна: СССР / Kraun, Ленфильм, Ленинтерфильм

Жанр: драма, комедия, биография, спорт
Год выпуска: 1991
Продолжительность: 01:38:16

Перевод: Не требуется
Cубтитры: нет
Оригинальная аудиодорожка: русский

Режиссер: Виктор Садовский

В ролях: Борис Щербаков, Владимир Стеклов, Андрей Болтнев, Ирина Малышева, Андрей Толубеев, Игорь Горбачев, Петр Шелохонов, Игорь Ефимов, Георгий Штиль, Андрей Пономарев...

Описание: Большой любитель спорта Василий Сталин на тренировке заметил молодого, дерзкого, подающего надежды паренька Всеволода Багрова. Его прямота и талант полюбились генерал-лейтенанту. Вскоре Всеволод стал величайшим советским футболистом и хоккеистом, его имя было на устах почти у каждого гражданина огромной страны, а рядом всегда оставался человек, считавший себя его другом и веривший в его силы, — Василий, сын Иосифа Сталина.
Никого не обошел гнев генерала, кроме Багрова. Но как меркнут звезды на погонах вершителей судеб, так наступает закат карьеры профессиональных спортсменов…



Качество: SATRip
Формат: AVI

Видео: 720x544 (4:3), 25.000 fps, XviD, ~1925 kbps avg, 0.197 bit/pix
Аудио: 48 kHz, Dolby AC3, 2 ch, 192 kbps, русский

Дополнительно: Во всех представленных в сети релизах SATRip, звук, примерно за 25 минут до конца фильма, опережал действие на экране приблизительно на 300 мс. Данная ошибка в этом релизе устранена, плюс добавлена громкость (дорожка была очень тихой).

Раздача от:
Общее
Полное имя : Moy.luchshiy.drug-general.Vasiliy.1991.O.SATRip_[New-Team]_by_avproh.avi
Формат : AVI
Формат/Информация : Audio Video Interleave
Размер файла : 1,46 Гбайт
Продолжительность : 1 ч. 38 м.
Общий поток : 2127 Кбит/сек
Программа кодирования : VirtualDubModRus 1.5.10.2 (build 2542/release)
Библиотека кодирования : VirtualDubMod build 2542/release

Видео
Идентификатор : 0
Формат : MPEG-4 Visual
Параметр BVOP формата : 1
Параметр QPel формата : Нет
Параметр GMC формата : Без точки перехода
Параметр матрицы формата : Default (H.263)
Режим смешивания : Сжатый битовый поток
Идентификатор кодека : DX50
Идентификатор кодека/Подсказка : DivX 5
Продолжительность : 1 ч. 38 м.
Битрейт : 1925 Кбит/сек
Ширина : 720 пикселей
Высота : 544 пикселя
Соотношение сторон : 4:3
Частота кадров : 25,000 кадров/сек
Цветовое пространство : YUV
Субдискретизация насыщенности : 4:2:0
Битовая глубина : 8 бит
Тип развёртки : Прогрессивная
Метод сжатия : С потерями
Бит/(Пиксели*Кадры) : 0.197
Размер потока : 1,32 Гбайт (91%)
Библиотека кодирования : DivX 6.8.3-6.8.4 (UTC 2008-06-07)

Аудио
Идентификатор : 1
Формат : AC-3
Формат/Информация : Audio Coding 3
Расширение режима : CM (complete main)
Параметр Endianness формата : Big
Идентификатор кодека : 2000
Продолжительность : 1 ч. 38 м.
Вид битрейта : Постоянный
Битрейт : 192 Кбит/сек
Каналы : 2 канала
Расположение каналов : Front: L R
Частота : 48,0 КГц
Битовая глубина : 16 бит
Метод сжатия : С потерями
Размер потока : 135 Мбайт (9%)
Выравнивание : Разделение по промежуткам
Продолжительность промежутка : 40 мс. (1,00 видеокадр)
Время предзагрузки промежутка : 500 мс.





   Похожие торренты   Торрент   Размер 
В этой теме нет новых непрочитанных сообщений. Мой лучший друг, генерал Василий, сын Иосифа (1991) TVRip

6 | 5

797.49 МБ

В этой теме нет новых непрочитанных сообщений. Товарищ генерал (1973) SATRip-AVC от New-Team

101 | 9

744.2 МБ

В этой теме нет новых непрочитанных сообщений. Товарищ генерал (1973) SATRip от New-Team

108 | 3

744.43 МБ

В этой теме нет новых непрочитанных сообщений. Сборник мультфильмов Иосифа Доукшы и Майи Бузиновой - Полная коллекция (1978-1991) DVDRip

62 | 9

2.75 ГБ

В этой теме нет новых непрочитанных сообщений. Земля обетованная от Иосифа Сталина (2009) SATRip

20 | 6

1.81 ГБ

В этой теме нет новых непрочитанных сообщений. Тайные знаки. Ведьма Иосифа Сталина (2009) SATRip

5 | 1

431 МБ

В этой теме нет новых непрочитанных сообщений. Друг моей подруги / L'ami de mon amie (1991) BDRip 720p от MediaClub | P, A

187 | 11

6.93 ГБ




Вы не можете начинать темы
Вы не можете отвечать на сообщения
Вы не можете редактировать свои сообщения
Вы не можете удалять свои сообщения
Вы не можете добавлять вложения

Перейти:  
Для Мосгорсуда, Роскомнадзора и рекламодателей: mosgorsud-torrent[собачка]yandex.ru
 Вход
ppkBB3cker v.2 © 2008-2014 @ PPK
[ Time : 0.029s | 15 Queries | GZIP : On ]

Торрент трекер RUTOR.IN, Не можете зайти на rutor.org? Какой новый адрес рутор? Какое зеркало рутор? Не работает rutor.org и зеркала? Тогда наш торрент специально для вас. Rutor.in неофициальное зеркало rutor. В случае если у Вас заблокирован rutor или вдруг Вы не можете на него зайти, то Вы без труда сможете скачать бесплатно и без рекламы последние новинки кино, игр, сериалов и прочего у нас, на Rutor.in. Не нужно использовать прокси, чтобы зайти на рутор, достаточно воспользоваться нашим ресурсом. Все новые фильмы, игры, сериалы, книги и музыка за 2013 и 2014 годы через торрент бесплатно. Скачивайте фильмы в хорошем качестве, игры для пк, xbox, playstation без регистрации. У нас вы найдете новые Зарубежные сериалы и Русские сериалы 2013, 2014, 2015 годов. Оставайтесь с нами, качайте любимые фильмы, игры, сериалы, книги и музыку.