img image001 image001 image001 image001 image001 image001 image001 image001 image001 image001 image001 image001 image001 image001 image001

Planets Sun Sun Sun
Статистика раздачи
Автор: Nickolas3434 | Размер: 7.06 ГБ | Добавлен: 03 май 2014
Раздают: 77    Качают: 50
Скачать торрент
Скачать торрент
Описание торрента

СообщениеДобавлено: 03 май 2014 

Информация о фильме
Оригинальное название: Спираль
Год выпуска: 2014
Жанр: Боевик
Режиссер: Андрей Волгин
В ролях: Константин Крюков, Анатолий Руденко, Вениамин Смехов, Александр Яцко, Никита Высоцкий, Кларисса Барская, Константин Глушков, Владимир Стержаков, Марина Куделинская, Рената Пиотровски

Описание: Главный герой истории — Алексей, талантливый программист из Новосибирска, приезжает в Москву и становится членом закрытого полулегального элитного клуба под названием «Спираль». Как новичку ему крупно везет, и он выигрывает одну экстремальную игру клуба за другой, получая сумасшедшие гонорары. В него влюбляется такая девушка, о какой он даже не мог мечтать. Но в одночасье красивый мир вокруг него рушится, и он влипает в крупные неприятности — его обвиняют в ограблении банка, любимая девушка не верит в его невиновность, и в довершении всего его пытаются убить…


Выпущено: Россия / студия «Питон»
Продолжительность: 01:37:40

Файл
Качество: BDRip 1080p
Видео: MPEG-4 AVC, 8200 Кбит/с, 1920x804, 25.000 кадр/с
Аудио #1: Русский (DTS, 6 ch, 1509 Кбит/с)
Аудио #2: Русский (АС3, 6 ch, 640 Кбит/с)

Семпл




x264 [info]: frame I:1249 Avg QP:14.76 size:181986
x264 [info]: frame P:35915 Avg QP:17.58 size: 70044
x264 [info]: frame B:109340 Avg QP:19.42 size: 29818
x264 [info]: consecutive B-frames: 4.0% 5.4% 11.7% 18.3% 12.2% 37.7% 7.2% 1.8% 1.8%
***************************************************************************************************
Общее
Уникальный идентификатор : 234745189172688582131934197171153419306 (0xB09A4766D52CE6B59D775F5F40B23C2A)
Полное имя : D:Mои раздачиSpiral.2014.BDRip.1080p-MediaClub.mkv
Формат : Matroska
Версия формата : Version 4 / Version 2
Размер файла : 7,06 Гбайт
Продолжительность : 1 ч. 37 м.
Общий поток : 10,3 Мбит/сек
Название фильма : -=MediaClub-kaspr=-
Дата кодирования : UTC 2014-05-02 15:53:36
Программа кодирования : mkvmerge v6.1.0 ('Old Devil') built on Mar 4 2013 09:10:42
Библиотека кодирования : libebml v1.3.0 + libmatroska v1.4.0

Видео
Идентификатор : 1
Формат : AVC
Формат/Информация : Advanced Video Codec
Профиль формата : High@L4.1
Параметр CABAC формата : Да
Параметр ReFrames формата : 5 кадров
Идентификатор кодека : V_MPEG4/ISO/AVC
Продолжительность : 1 ч. 37 м.
Битрейт : 8200 Кбит/сек
Ширина : 1920 пикселей
Высота : 804 пикселя
Соотношение сторон : 2,40:1
Режим частоты кадров : Постоянный
Частота кадров : 25,000 кадров/сек
Цветовое пространство : YUV
Субдискретизация насыщенности : 4:2:0
Битовая глубина : 8 бит
Тип развёртки : Прогрессивная
Бит/(Пиксели*Кадры) : 0.212
Размер потока : 5,45 Гбайт (77%)
Заголовок : -=MediaClub-kaspr=-
Библиотека кодирования : x264 core 142 r2431+42 c69a006 tMod [8-bit@4:2:0 X86_64]
Настройки программы : cabac=1 / ref=5 / deblock=1:-3:-3 / analyse=0x3:0x113 / me=umh / subme=11 / psy=1 / fade_compensate=0.00 / psy_rd=1.00:0.20 / mixed_ref=1 / me_range=32 / chroma_me=1 / trellis=2 / 8x8dct=1 / cqm=0 / deadzone=21,11 / fast_pskip=0 / chroma_qp_offset=-3 / threads=12 / lookahead_threads=2 / sliced_threads=0 / nr=0 / decimate=0 / interlaced=0 / bluray_compat=0 / constrained_intra=0 / fgo=0 / bframes=8 / b_pyramid=2 / b_adapt=2 / b_bias=0 / direct=3 / weightb=1 / open_gop=0 / weightp=2 / keyint=250 / keyint_min=25 / scenecut=40 / intra_refresh=0 / rc=2pass / mbtree=0 / bitrate=8200 / ratetol=1.0 / qcomp=0.60 / qpmin=0:0:0 / qpmax=69:69:69 / qpstep=4 / cplxblur=20.0 / qblur=0.5 / ip_ratio=1.40 / pb_ratio=1.30 / aq=4:0.80 / aq-sensitivity=10.00 / aq-factor=1.00:1.00:1.00 / aq2=0 / aq3=0
Default : Да
Forced : Да

Аудио #1
Идентификатор : 2
Формат : DTS
Формат/Информация : Digital Theater Systems
Режим : 16
Параметр Endianness формата : Big
Идентификатор кодека : A_DTS
Продолжительность : 1 ч. 37 м.
Вид битрейта : Постоянный
Битрейт : 1510 Кбит/сек
Каналы : 6 каналов
Расположение каналов : Front: L C R, Side: L R, LFE
Частота : 48,0 КГц
Битовая глубина : 24 бит
Метод сжатия : С потерями
Размер потока : 1,03 Гбайт (15%)
Заголовок : DTS
Язык : Russian
Default : Да
Forced : Да

Аудио #2
Идентификатор : 3
Формат : AC-3
Формат/Информация : Audio Coding 3
Расширение режима : CM (complete main)
Параметр Endianness формата : Big
Идентификатор кодека : A_AC3
Продолжительность : 1 ч. 37 м.
Вид битрейта : Постоянный
Битрейт : 640 Кбит/сек
Каналы : 6 каналов
Расположение каналов : Front: L C R, Side: L R, LFE
Частота : 48,0 КГц
Битовая глубина : 16 бит
Метод сжатия : С потерями
Размер потока : 447 Мбайт (6%)
Заголовок : AC3
Язык : Russian
Default : Нет
Forced : Нет

Меню
00:00:00.000 : :Chapter 01
00:08:29.359 : :Chapter 02
00:19:05.400 : :Chapter 03
00:24:32.880 : :Chapter 04
00:32:32.280 : :Chapter 05
00:39:00.520 : :Chapter 06
00:48:09.280 : :Chapter 07
00:56:34.480 : :Chapter 08
01:04:08.400 : :Chapter 09
01:12:22.800 : :Chapter 10
01:21:00.240 : :Chapter 11
01:33:03.880 : :Chapter 12
01:37:40.120 : :Chapter 13


Релиз: |



   Похожие торренты   Торрент   Размер 
В этой теме нет новых непрочитанных сообщений. Спираль (2014) BDRip 1080p | Лицензия

96 | 47

7.09 ГБ

В этой теме нет новых непрочитанных сообщений. Спираль (2014) BDRip 720p | Лицензия

327 | 129

3.97 ГБ

В этой теме нет новых непрочитанных сообщений. 22 минуты (2014) BDRip 1080p от MediaClub | Лицензия

522 | 52

7.03 ГБ

В этой теме нет новых непрочитанных сообщений. Поддубный (2014) BDRip 1080p от MediaClub | Лицензия

451 | 16

9.82 ГБ

В этой теме нет новых непрочитанных сообщений. Спираль (2014) Blu-ray | Лицензия

41 | 39

19.06 ГБ

В этой теме нет новых непрочитанных сообщений. Подарок с характером (2014) BDRip 1080p от MediaClub | Лицензия

1002 | 161

6.56 ГБ

В этой теме нет новых непрочитанных сообщений. Кухня в Париже (2014) BDRip 1080p от MediaClub | Лицензия

654 | 87

7.56 ГБ




Вы не можете начинать темы
Вы не можете отвечать на сообщения
Вы не можете редактировать свои сообщения
Вы не можете удалять свои сообщения
Вы не можете добавлять вложения

Перейти:  
Для Мосгорсуда, Роскомнадзора и рекламодателей: mosgorsud-torrent[собачка]yandex.ru
 Вход
ppkBB3cker v.2 © 2008-2014 @ PPK
[ Time : 0.042s | 16 Queries | GZIP : Off ]

Торрент трекер RUTOR.IN, Не можете зайти на rutor.org? Какой новый адрес рутор? Какое зеркало рутор? Не работает rutor.org и зеркала? Тогда наш торрент специально для вас. Rutor.in неофициальное зеркало rutor. В случае если у Вас заблокирован rutor или вдруг Вы не можете на него зайти, то Вы без труда сможете скачать бесплатно и без рекламы последние новинки кино, игр, сериалов и прочего у нас, на Rutor.in. Не нужно использовать прокси, чтобы зайти на рутор, достаточно воспользоваться нашим ресурсом. Все новые фильмы, игры, сериалы, книги и музыка за 2013 и 2014 годы через торрент бесплатно. Скачивайте фильмы в хорошем качестве, игры для пк, xbox, playstation без регистрации. У нас вы найдете новые Зарубежные сериалы и Русские сериалы 2013, 2014, 2015 годов. Оставайтесь с нами, качайте любимые фильмы, игры, сериалы, книги и музыку.
cron