img image001 image001 image001 image001 image001 image001 image001 image001 image001 image001 image001 image001 image001 image001 image001

Planets Sun Sun Sun
Статистика раздачи
Автор: Nickolas3434 | Размер: 1.46 ГБ | Добавлен: 03 май 2014
Раздают: 39    Качают: 22
Скачать торрент
Скачать торрент
Описание торрента

СообщениеДобавлено: 03 май 2014 


Страна: Россия / ТПО "Действие"

Жанр: драма
Год выпуска: 1993
Продолжительность: 01:25:00

Перевод: Не требуется
Cубтитры: нет
Оригинальная аудиодорожка: русский

Режиссер: Александр Сорокин

В ролях: Татьяна Догилева, Эдуард Марцевич, Евгений Стычкин, Анатолий Равикович, Александра Свенская, Александр Руснак, Анатолий Мамбетов, Анатолий Обухов, Галина Захурдаева, Лев Лужновский...

Описание: Юноша, жаждущий любовных приключений, знакомится с замужней женщиной, отвечающей ему взаимностью. Но вскоре выясняется, что муж у возлюбленной — фальшивомонетчик. Она же привыкла жить в роскоши — и разорвать семейный союз отнюдь не простое дело, можно даже сказать смертельно опасное…



Качество: DVDRip / DVD5 R5
Формат: AVI

Видео: 704x400 (16:9), 25.000 fps, XviD, ~2253 kbps avg, 0.320 bit/pix
Аудио: 48 kHz, Dolby AC3, 2 ch, 192 kbps, русский

Раздача от:
Общее
Полное имя : Pchelka.1993.O.DVDRip_[New-Team]_by_avproh.avi
Формат : AVI
Формат/Информация : Audio Video Interleave
Размер файла : 1,46 Гбайт
Продолжительность : 1 ч. 25 м.
Общий поток : 2454 Кбит/сек
Программа кодирования : VirtualDubMod 1.5.10.3 | www.virtualdub-fr.org || (build 2550/release)
Библиотека кодирования : VirtualDubMod build 2550/release

Видео
Идентификатор : 0
Формат : MPEG-4 Visual
Профиль формата : Advanced Simple@L5
Параметр BVOP формата : 1
Параметр QPel формата : Нет
Параметр GMC формата : Без точки перехода
Параметр матрицы формата : Выборочная
Идентификатор кодека : XVID
Идентификатор кодека/Подсказка : XviD
Продолжительность : 1 ч. 25 м.
Битрейт : 2253 Кбит/сек
Ширина : 704 пикселя
Высота : 400 пикселей
Соотношение сторон : 16:9
Частота кадров : 25,000 кадров/сек
Цветовое пространство : YUV
Субдискретизация насыщенности : 4:2:0
Битовая глубина : 8 бит
Тип развёртки : Прогрессивная
Метод сжатия : С потерями
Бит/(Пиксели*Кадры) : 0.320
Размер потока : 1,34 Гбайт (92%)
Библиотека кодирования : XviD 73

Аудио
Идентификатор : 1
Формат : AC-3
Формат/Информация : Audio Coding 3
Расширение режима : CM (complete main)
Параметр Endianness формата : Big
Идентификатор кодека : 2000
Продолжительность : 1 ч. 25 м.
Вид битрейта : Постоянный
Битрейт : 192 Кбит/сек
Каналы : 2 канала
Расположение каналов : Front: L R
Частота : 48,0 КГц
Битовая глубина : 16 бит
Метод сжатия : С потерями
Размер потока : 117 Мбайт (8%)
Выравнивание : Разделение по промежуткам
Продолжительность промежутка : 40 мс. (1,00 видеокадр)
Время предзагрузки промежутка : 500 мс.





   Похожие торренты   Торрент   Размер 
В этой теме нет новых непрочитанных сообщений. Пчелка (1993) DVDRip-AVC от New-Team

29 | 36

1.46 ГБ

В этой теме нет новых непрочитанных сообщений. Пчелка (1993) DVD5 R5 от New-Team

3 | 5

3.94 ГБ

В этой теме нет новых непрочитанных сообщений. Пчелка (1993) DVDRip от Lebanon

2 | 5

744.24 МБ

В этой теме нет новых непрочитанных сообщений. Пчёлка Майя / Maya The Bee – Movie (2014) BDRip от New-Team | D

351 | 51

1.46 ГБ

В этой теме нет новых непрочитанных сообщений. Пчелка Майя / Die Biene Maja (1975) DVDRip от ExKinoRay

55 | 9

1.37 ГБ

В этой теме нет новых непрочитанных сообщений. Пчелка Юля / L'apetta Giulia e la signora Vita (2003) DVDRip

30 | 2

700.11 МБ

В этой теме нет новых непрочитанных сообщений. Пчелка Майя / Mitsubachi Maya no boken [01х01-52] (1975) DVDRip

14 | 9

10.17 ГБ




Вы не можете начинать темы
Вы не можете отвечать на сообщения
Вы не можете редактировать свои сообщения
Вы не можете удалять свои сообщения
Вы не можете добавлять вложения

Перейти:  
Для Мосгорсуда, Роскомнадзора и рекламодателей: mosgorsud-torrent[собачка]yandex.ru
 Вход
ppkBB3cker v.2 © 2008-2014 @ PPK
[ Time : 0.044s | 15 Queries | GZIP : Off ]

Торрент трекер RUTOR.IN, Не можете зайти на rutor.org? Какой новый адрес рутор? Какое зеркало рутор? Не работает rutor.org и зеркала? Тогда наш торрент специально для вас. Rutor.in неофициальное зеркало rutor. В случае если у Вас заблокирован rutor или вдруг Вы не можете на него зайти, то Вы без труда сможете скачать бесплатно и без рекламы последние новинки кино, игр, сериалов и прочего у нас, на Rutor.in. Не нужно использовать прокси, чтобы зайти на рутор, достаточно воспользоваться нашим ресурсом. Все новые фильмы, игры, сериалы, книги и музыка за 2013 и 2014 годы через торрент бесплатно. Скачивайте фильмы в хорошем качестве, игры для пк, xbox, playstation без регистрации. У нас вы найдете новые Зарубежные сериалы и Русские сериалы 2013, 2014, 2015 годов. Оставайтесь с нами, качайте любимые фильмы, игры, сериалы, книги и музыку.