img image001 image001 image001 image001 image001 image001 image001 image001 image001 image001 image001 image001 image001 image001 image001

Planets Sun Sun Sun
Статистика раздачи
Автор: Nickolas3434 | Размер: 2.19 ГБ | Добавлен: 04 май 2014
Раздают: 290    Качают: 33
Скачать торрент
Скачать торрент
Описание торрента

СообщениеДобавлено: 04 май 2014 


Страна: СССР / Ленфильм

Жанр: драма
Год выпуска: 1975
Продолжительность: 02:10:49 (01:03:32 + 01:07:17) - 2 серии

Перевод: Не требуется
Cубтитры: нет
Оригинальная аудиодорожка: русский

Режиссер: Виталий Мельников

В ролях: Евгений Леонов, Николай Караченцов, Наталья Егорова, Владимир Изотов, Михаил Боярский, Светлана Крючкова, Николай Николаев-Никольский, Игорь Горбачев

Описание: Это история о том, как два молодых шалопая, провожая случайно знакомых девиц, оказались холодной осенней ночью в глухом пригороде, а все их попытки пристроиться на ночлег оканчивались неудачно.
Наконец, позвонив в отсутствие хозяина дома в первую попавшуюся квартиру и чувствуя, что их вот-вот выставят за дверь, молодые люди не нашли ничего лучше, как объявить, что один из них… внебрачный сын главы семьи… Неожиданно их шутке поверили. Ситуация становится еще более удивительной, когда в вымышленное родство вдруг начинает верить и сам автор этой выдумки…



Качество: DVDRip / DVD9 R5
Формат: AVI

Видео: 720x544 (4:3), 25.000 fps, XviD, ~1936 kbps avg, 0.198 bit/pix
Аудио: 48 kHz, Dolby AC3, 6 ch, 448 kbps, русский

Раздача от:
Общее
Полное имя : Starshiy.syn.1975.O.DVDRip_[New-Team]_by_avproh1.avi
Формат : AVI
Формат/Информация : Audio Video Interleave
Размер файла : 1,06 Гбайт
Продолжительность : 1 ч. 3 м.
Общий поток : 2393 Кбит/сек
Программа кодирования : VirtualDubModRus 1.5.10.2 (build 2542/release)
Библиотека кодирования : VirtualDubMod build 2542/release

Видео
Идентификатор : 0
Формат : MPEG-4 Visual
Профиль формата : Advanced Simple@L5
Параметр BVOP формата : 1
Параметр QPel формата : Нет
Параметр GMC формата : Без точки перехода
Параметр матрицы формата : Выборочная
Идентификатор кодека : XVID
Идентификатор кодека/Подсказка : XviD
Продолжительность : 1 ч. 3 м.
Битрейт : 1936 Кбит/сек
Ширина : 720 пикселей
Высота : 544 пикселя
Соотношение сторон : 4:3
Частота кадров : 25,000 кадров/сек
Цветовое пространство : YUV
Субдискретизация насыщенности : 4:2:0
Битовая глубина : 8 бит
Тип развёртки : Прогрессивная
Метод сжатия : С потерями
Бит/(Пиксели*Кадры) : 0.198
Размер потока : 879 Мбайт (81%)
Библиотека кодирования : XviD 73

Аудио
Идентификатор : 1
Формат : AC-3
Формат/Информация : Audio Coding 3
Расширение режима : CM (complete main)
Параметр Endianness формата : Big
Идентификатор кодека : 2000
Продолжительность : 1 ч. 3 м.
Вид битрейта : Постоянный
Битрейт : 448 Кбит/сек
Каналы : 6 каналов
Расположение каналов : Front: L C R, Side: L R, LFE
Частота : 48,0 КГц
Битовая глубина : 16 бит
Метод сжатия : С потерями
Размер потока : 204 Мбайт (19%)
Выравнивание : Разделение по промежуткам
Продолжительность промежутка : 40 мс. (1,00 видеокадр)
Время предзагрузки промежутка : 500 мс.



http://d.rutor.org/download/47301

Рутор: http://screenshotcomparison.com/comparison/73074 - у конкурента перекроп со всех сторон и хуже картинка.



   Похожие торренты   Торрент   Размер 
В этой теме нет новых непрочитанных сообщений. Старший сын (1975) DVDRip-AVC от New-Team

54 | 31

2.19 ГБ

В этой теме нет новых непрочитанных сообщений. Старший сын (1975) DVDRip

63 | 5

1.36 ГБ

В этой теме нет новых непрочитанных сообщений. Старший сын (1975) DVDRip-AVC от ExKinoRay

138 | 8

2.15 ГБ

В этой теме нет новых непрочитанных сообщений. Старший сын [01-02 из 02] (1975) DVDRip от MediaClub | КПК

16 | 13

590.06 МБ

В этой теме нет новых непрочитанных сообщений. Старший сын (1975) DVDRip | Полная реставрация

58 | 12

1.9 ГБ

В этой теме нет новых непрочитанных сообщений. Старший Фершо / L'aîné des Ferchaux (1963) DVDRip | P2, A

132 | 14

1.46 ГБ

В этой теме нет новых непрочитанных сообщений. Это мы не проходили (1975) DVDRip от New-Team

545 | 31

1.45 ГБ




Вы не можете начинать темы
Вы не можете отвечать на сообщения
Вы не можете редактировать свои сообщения
Вы не можете удалять свои сообщения
Вы не можете добавлять вложения

Перейти:  
Для Мосгорсуда, Роскомнадзора и рекламодателей: mosgorsud-torrent[собачка]yandex.ru
 Вход
ppkBB3cker v.2 © 2008-2014 @ PPK
[ Time : 0.888s | 17 Queries | GZIP : On ]

Торрент трекер RUTOR.IN, Не можете зайти на rutor.org? Какой новый адрес рутор? Какое зеркало рутор? Не работает rutor.org и зеркала? Тогда наш торрент специально для вас. Rutor.in неофициальное зеркало rutor. В случае если у Вас заблокирован rutor или вдруг Вы не можете на него зайти, то Вы без труда сможете скачать бесплатно и без рекламы последние новинки кино, игр, сериалов и прочего у нас, на Rutor.in. Не нужно использовать прокси, чтобы зайти на рутор, достаточно воспользоваться нашим ресурсом. Все новые фильмы, игры, сериалы, книги и музыка за 2013 и 2014 годы через торрент бесплатно. Скачивайте фильмы в хорошем качестве, игры для пк, xbox, playstation без регистрации. У нас вы найдете новые Зарубежные сериалы и Русские сериалы 2013, 2014, 2015 годов. Оставайтесь с нами, качайте любимые фильмы, игры, сериалы, книги и музыку.