img image001 image001 image001 image001 image001 image001 image001 image001 image001 image001 image001 image001 image001 image001 image001

Planets Sun Sun Sun
Статистика раздачи
Автор: Nickolas3434 | Размер: 2.19 ГБ | Добавлен: 04 май 2014
Раздают: 54    Качают: 31
Скачать торрент
Скачать торрент
Описание торрента

СообщениеДобавлено: 04 май 2014 


Страна: СССР / Ленфильм

Жанр: драма
Год выпуска: 1975
Продолжительность: 02:10:49 (01:03:32 + 01:07:17) - 2 серии

Перевод: Не требуется
Cубтитры: нет
Оригинальная аудиодорожка: русский

Режиссер: Виталий Мельников

В ролях: Евгений Леонов, Николай Караченцов, Наталья Егорова, Владимир Изотов, Михаил Боярский, Светлана Крючкова, Николай Николаев-Никольский, Игорь Горбачев

Описание: Это история о том, как два молодых шалопая, провожая случайно знакомых девиц, оказались холодной осенней ночью в глухом пригороде, а все их попытки пристроиться на ночлег оканчивались неудачно.
Наконец, позвонив в отсутствие хозяина дома в первую попавшуюся квартиру и чувствуя, что их вот-вот выставят за дверь, молодые люди не нашли ничего лучше, как объявить, что один из них… внебрачный сын главы семьи… Неожиданно их шутке поверили. Ситуация становится еще более удивительной, когда в вымышленное родство вдруг начинает верить и сам автор этой выдумки…



Качество: DVDRip-AVC / DVD9 R5
Формат: MKV

Видео: 720x572@768x572 (4:3), 25.000 fps, MPEG-4 AVC, ~1942 kbps avg, 0.187 bit/pix
Аудио: 48 kHz, Dolby AC3, 6 ch, 448 kbps, русский

Раздача от:
Общее
Полное имя : Starshiy.syn.1975.O.DVDRip-AVC_[New-Team]_by_avproh1.mkv
Формат : Matroska
Версия формата : Version 4 / Version 2
Размер файла : 1,06 Гбайт
Продолжительность : 1 ч. 3 м.
Общий поток : 2392 Кбит/сек
Дата кодирования : UTC 2014-05-03 11:58:40
Программа кодирования : mkvmerge v6.9.1 ('Blue Panther') 64bit built on Apr 18 2014 18:23:38
Библиотека кодирования : libebml v1.3.0 + libmatroska v1.4.1

Видео
Идентификатор : 1
Формат : AVC
Формат/Информация : Advanced Video Codec
Профиль формата : High@L4.1
Параметр CABAC формата : Да
Параметр ReFrames формата : 8 кадров
Идентификатор кодека : V_MPEG4/ISO/AVC
Продолжительность : 1 ч. 3 м.
Битрейт : 1942 Кбит/сек
Ширина : 720 пикселей
Высота : 572 пикселя
Соотношение сторон : 4:3
Режим частоты кадров : Постоянный
Частота кадров : 25,000 кадров/сек
Цветовое пространство : YUV
Субдискретизация насыщенности : 4:2:0
Битовая глубина : 8 бит
Тип развёртки : Прогрессивная
Бит/(Пиксели*Кадры) : 0.189
Размер потока : 861 Мбайт (79%)
Библиотека кодирования : x264 core 138 r2356 a1d3d17
Настройки программы : cabac=1 / ref=8 / deblock=1:-2:-1 / analyse=0x3:0x113 / me=umh / subme=10 / psy=1 / psy_rd=1.00:0.05 / mixed_ref=1 / me_range=32 / chroma_me=1 / trellis=2 / 8x8dct=1 / cqm=0 / deadzone=21,11 / fast_pskip=0 / chroma_qp_offset=-3 / threads=9 / lookahead_threads=1 / sliced_threads=0 / nr=0 / decimate=0 / interlaced=0 / bluray_compat=0 / constrained_intra=0 / bframes=8 / b_pyramid=2 / b_adapt=2 / b_bias=0 / direct=3 / weightb=1 / open_gop=0 / weightp=2 / keyint=250 / keyint_min=25 / scenecut=40 / intra_refresh=0 / rc=2pass / mbtree=0 / bitrate=1942 / ratetol=1.0 / qcomp=0.60 / qpmin=0 / qpmax=69 / qpstep=4 / cplxblur=20.0 / qblur=0.5 / ip_ratio=1.40 / pb_ratio=1.30 / aq=1:1.00
Язык : Russian
Default : Да
Forced : Нет

Аудио
Идентификатор : 2
Формат : AC-3
Формат/Информация : Audio Coding 3
Расширение режима : CM (complete main)
Параметр Endianness формата : Big
Идентификатор кодека : A_AC3
Продолжительность : 1 ч. 3 м.
Вид битрейта : Постоянный
Битрейт : 448 Кбит/сек
Каналы : 6 каналов
Расположение каналов : Front: L C R, Side: L R, LFE
Частота : 48,0 КГц
Битовая глубина : 16 бит
Метод сжатия : С потерями
Размер потока : 204 Мбайт (19%)
Язык : Russian
Default : Да
Forced : Нет





   Похожие торренты   Торрент   Размер 
В этой теме нет новых непрочитанных сообщений. Старший сын (1975) DVDRip от New-Team

290 | 33

2.19 ГБ

В этой теме нет новых непрочитанных сообщений. Старший сын (1975) DVDRip

63 | 5

1.36 ГБ

В этой теме нет новых непрочитанных сообщений. Старший сын (1975) DVDRip-AVC от ExKinoRay

138 | 8

2.15 ГБ

В этой теме нет новых непрочитанных сообщений. Старший сын [01-02 из 02] (1975) DVDRip от MediaClub | КПК

16 | 13

590.06 МБ

В этой теме нет новых непрочитанных сообщений. Старший сын (1975) DVDRip | Полная реставрация

58 | 12

1.9 ГБ

В этой теме нет новых непрочитанных сообщений. Старший Фершо / L'aîné des Ferchaux (1963) DVDRip | P2, A

132 | 14

1.46 ГБ

В этой теме нет новых непрочитанных сообщений. Порт (1975) DVDRip-AVC от New-Team

24 | 7

744.62 МБ




Вы не можете начинать темы
Вы не можете отвечать на сообщения
Вы не можете редактировать свои сообщения
Вы не можете удалять свои сообщения
Вы не можете добавлять вложения

Перейти:  
Для Мосгорсуда, Роскомнадзора и рекламодателей: mosgorsud-torrent[собачка]yandex.ru
 Вход
ppkBB3cker v.2 © 2008-2014 @ PPK
[ Time : 0.535s | 15 Queries | GZIP : Off ]

Торрент трекер RUTOR.IN, Не можете зайти на rutor.org? Какой новый адрес рутор? Какое зеркало рутор? Не работает rutor.org и зеркала? Тогда наш торрент специально для вас. Rutor.in неофициальное зеркало rutor. В случае если у Вас заблокирован rutor или вдруг Вы не можете на него зайти, то Вы без труда сможете скачать бесплатно и без рекламы последние новинки кино, игр, сериалов и прочего у нас, на Rutor.in. Не нужно использовать прокси, чтобы зайти на рутор, достаточно воспользоваться нашим ресурсом. Все новые фильмы, игры, сериалы, книги и музыка за 2013 и 2014 годы через торрент бесплатно. Скачивайте фильмы в хорошем качестве, игры для пк, xbox, playstation без регистрации. У нас вы найдете новые Зарубежные сериалы и Русские сериалы 2013, 2014, 2015 годов. Оставайтесь с нами, качайте любимые фильмы, игры, сериалы, книги и музыку.