img image001 image001 image001 image001 image001 image001 image001 image001 image001 image001 image001 image001 image001 image001 image001

Planets Sun Sun Sun
Статистика раздачи
Автор: Nickolas3434 | Размер: 2.85 ГБ | Добавлен: 04 май 2014
Раздают: 304    Качают: 49
Скачать торрент
Скачать торрент
Описание торрента

СообщениеДобавлено: 04 май 2014 

Информация о фильме
Название: Спираль
Год выхода: 2013
Жанр: боевик
Режиссер: Андрей Волгин
В ролях: Константин Крюков, Анатолий Руденко, Вениамин Смехов, Александр Яцко, Никита Высоцкий, Кларисса Барская, Константин Глушков, Владимир Стержаков, Марина Куделинская, Рената Пиотровски

О фильме: Главный герой истории — Алексей, талантливый программист из Новосибирска, приезжает в Москву и становится членом закрытого полулегального элитного клуба под названием «Спираль». Как новичку ему крупно везет, и он выигрывает одну экстремальную игру клуба за другой, получая сумасшедшие гонорары. В него влюбляется такая девушка, о какой он даже не мог мечтать.

Но в одночасье красивый мир вокруг него рушится, и он влипает в крупные неприятности — его обвиняют в ограблении банка, любимая девушка не верит в его невиновность, и в довершении всего его пытаются убить…



Выпущено: студия «Питон»
Продолжительность: 01:37:40
Перевод: Оригинал (лицензия)

Файл
Кодек: x264
Качество: BDRip (источник: Blu-ray Disc)
Видео: 1280x536 (2,40:1), 25 fps, 3540 kbps
Аудио: AC-3, 6 ch, 640 kbps
Скачать: сэмпл

Скриншоты

Общее
Уникальный идентификатор : 227979505109014826229543227741222365205 (0xAB83416C5AAAFC7E9384625986666815)
Полное имя : Spiral.2013.BDRip.720p.Rus.mkv
Формат : Matroska
Версия формата : Version 2
Размер файла : 2,85 Гбайт
Продолжительность : 1 ч. 37 м.
Общий поток : 4185 Кбит/сек
Название фильма : Спираль (2013)
Дата кодирования : UTC 2014-05-03 19:28:43
Программа кодирования : mkvmerge v5.8.0 ('No Sleep / Pillow') built on Sep 2 2012 15:37:04
Библиотека кодирования : libebml v1.2.3 + libmatroska v1.3.0

Видео
Идентификатор : 1
Формат : AVC
Формат/Информация : Advanced Video Codec
Профиль формата : High@L4.1
Параметр CABAC формата : Да
Параметр ReFrames формата : 11 кадров
Идентификатор кодека : V_MPEG4/ISO/AVC
Продолжительность : 1 ч. 37 м.
Битрейт : 3543 Кбит/сек
Ширина : 1280 пикселей
Высота : 536 пикселей
Соотношение сторон : 2,40:1
Режим частоты кадров : Постоянный
Частота кадров : 25,000 кадров/сек
Цветовое пространство : YUV
Субдискретизация насыщенности : 4:2:0
Битовая глубина : 8 бит
Тип развёртки : Прогрессивная
Бит/(Пиксели*Кадры) : 0.207
Размер потока : 2,36 Гбайт (83%)
Заголовок : Release by AlexKa
Библиотека кодирования : x264 core 142 r2431 ac76440
Настройки программы : cabac=1 / ref=11 / deblock=1:-3:-3 / analyse=0x3:0x133 / me=umh / subme=11 / psy=1 / psy_rd=1.00:0.00 / mixed_ref=1 / me_range=32 / chroma_me=1 / trellis=2 / 8x8dct=1 / cqm=0 / deadzone=21,11 / fast_pskip=0 / chroma_qp_offset=-2 / threads=12 / lookahead_threads=2 / sliced_threads=0 / nr=0 / decimate=0 / interlaced=0 / bluray_compat=0 / constrained_intra=0 / bframes=9 / b_pyramid=2 / b_adapt=2 / b_bias=0 / direct=3 / weightb=1 / open_gop=0 / weightp=2 / keyint=250 / keyint_min=25 / scenecut=40 / intra_refresh=0 / rc=2pass / mbtree=0 / bitrate=3543 / ratetol=1.0 / qcomp=0.60 / qpmin=0 / qpmax=69 / qpstep=4 / cplxblur=20.0 / qblur=0.5 / ip_ratio=1.40 / pb_ratio=1.30 / aq=1:0.70
Язык : Russian

Аудио
Идентификатор : 2
Формат : AC-3
Формат/Информация : Audio Coding 3
Расширение режима : CM (complete main)
Параметр Endianness формата : Big
Идентификатор кодека : A_AC3
Продолжительность : 1 ч. 37 м.
Вид битрейта : Постоянный
Битрейт : 640 Кбит/сек
Каналы : 6 каналов
Расположение каналов : Front: L C R, Side: L R, LFE
Частота : 48,0 КГц
Битовая глубина : 16 бит
Метод сжатия : С потерями
Размер потока : 447 Мбайт (15%)
Заголовок : Rus
Язык : Russian

Меню
00:00:00.000 : :Chapter 01
00:08:29.359 : :Chapter 02
00:19:05.400 : :Chapter 03
00:24:32.880 : :Chapter 04
00:32:32.280 : :Chapter 05
00:39:00.520 : :Chapter 06
00:48:09.280 : :Chapter 07
00:56:34.480 : :Chapter 08
01:04:08.400 : :Chapter 09
01:12:22.800 : :Chapter 10
01:21:00.240 : :Chapter 11
01:33:03.880 : :Chapter 12
01:37:40.120 : :Chapter 13



   Похожие торренты   Торрент   Размер 
В этой теме нет новых непрочитанных сообщений. Спираль (2013) BDRip 1080p

81 | 11

5.77 ГБ

В этой теме нет новых непрочитанных сообщений. Спираль (2013) BDRip-AVC от HELLYWOOD | Лицензия

201 | 12

1.45 ГБ

В этой теме нет новых непрочитанных сообщений. Спираль (2013) BDRip от HQCLUB | Лицензия

595 | 25

1.45 ГБ

В этой теме нет новых непрочитанных сообщений. Спираль (2013) BDRip-AVC от RG WazZzuP | Лицензия

64 | 2

744.53 МБ

В этой теме нет новых непрочитанных сообщений. Спираль (2014) BDRip 720p | Лицензия

327 | 129

3.97 ГБ

В этой теме нет новых непрочитанных сообщений. Спираль / Helix (2015) BDRip 720p | L

238 | 50

4.17 ГБ

В этой теме нет новых непрочитанных сообщений. Спираль / Engrenages [S01] (2005) BDRip 720p | ViruseProject

9 | 2

20.57 ГБ




Вы не можете начинать темы
Вы не можете отвечать на сообщения
Вы не можете редактировать свои сообщения
Вы не можете удалять свои сообщения
Вы не можете добавлять вложения

Перейти:  
Для Мосгорсуда, Роскомнадзора и рекламодателей: mosgorsud-torrent[собачка]yandex.ru
 Вход
ppkBB3cker v.2 © 2008-2014 @ PPK
[ Time : 0.060s | 16 Queries | GZIP : Off ]

Торрент трекер RUTOR.IN, Не можете зайти на rutor.org? Какой новый адрес рутор? Какое зеркало рутор? Не работает rutor.org и зеркала? Тогда наш торрент специально для вас. Rutor.in неофициальное зеркало rutor. В случае если у Вас заблокирован rutor или вдруг Вы не можете на него зайти, то Вы без труда сможете скачать бесплатно и без рекламы последние новинки кино, игр, сериалов и прочего у нас, на Rutor.in. Не нужно использовать прокси, чтобы зайти на рутор, достаточно воспользоваться нашим ресурсом. Все новые фильмы, игры, сериалы, книги и музыка за 2013 и 2014 годы через торрент бесплатно. Скачивайте фильмы в хорошем качестве, игры для пк, xbox, playstation без регистрации. У нас вы найдете новые Зарубежные сериалы и Русские сериалы 2013, 2014, 2015 годов. Оставайтесь с нами, качайте любимые фильмы, игры, сериалы, книги и музыку.
cron