img image001 image001 image001 image001 image001 image001 image001 image001 image001 image001 image001 image001 image001 image001 image001

Planets Sun Sun Sun
Статистика раздачи
Автор: Nickolas3434 | Размер: 1.46 ГБ | Добавлен: 06 май 2014
Раздают: 53    Качают: 25
Скачать торрент
Скачать торрент
Описание торрента

СообщениеДобавлено: 06 май 2014 


Страна: СССР / Студия Горького

Жанр: мелодрама, комедия
Год выпуска: 1980
Продолжительность: 01:13:36

Перевод: Не требуется
Cубтитры: русский, английский
Оригинальная аудиодорожка: русский

Режиссер: Юрий Егоров

В ролях: Наталья Гундарева, Виктор Проскурин, Евгений Лазарев, Олег Ефремов, Валентина Титова, Ольга Гобзева, Александр Потапов, Игорь Ясулович, Валентин Смирнитский, Инга Будкевич...

Описание: Выпускники одной из московских школ через двадцать лет после окончания собираются вместе. Каждого просят ответить на два вопроса: «Что вы уже сделали?» и «Чего еще в жизни ждете?». Вместе с бывшими однокашниками пытается найти ответы на поставленные вопросы и главная героиня фильма — многодетная мать Надя Круглова.



Качество: DVDRip / DVD9 R5
Формат: AVI

Видео: 688x288 (2.40:1), 25.000 fps, XviD, ~2376 kbps avg, 0.480 bit/pix
Аудио: 48 kHz, Dolby AC3, 6 ch, 448 kbps, русский
Формат субтитров: SoftSub (srt)

Раздача от:
Общее
Полное имя : Odnazhdy.dvadtsat.let.spustya.1980.O.DVDRip_[New-Team]_by_avproh (1).avi
Формат : AVI
Формат/Информация : Audio Video Interleave
Размер файла : 1,46 Гбайт
Продолжительность : 1 ч. 13 м.
Общий поток : 2833 Кбит/сек
Программа кодирования : VirtualDubMod 1.5.10.3 | www.virtualdub-fr.org || (build 2550/release)
Библиотека кодирования : VirtualDubMod build 2550/release

Видео
Идентификатор : 0
Формат : MPEG-4 Visual
Профиль формата : Advanced Simple@L5
Параметр BVOP формата : 1
Параметр QPel формата : Нет
Параметр GMC формата : Без точки перехода
Параметр матрицы формата : Выборочная
Идентификатор кодека : XVID
Идентификатор кодека/Подсказка : XviD
Продолжительность : 1 ч. 13 м.
Битрейт : 2376 Кбит/сек
Ширина : 688 пикселей
Высота : 288 пикселей
Соотношение сторон : 2,40:1
Частота кадров : 25,000 кадров/сек
Цветовое пространство : YUV
Субдискретизация насыщенности : 4:2:0
Битовая глубина : 8 бит
Тип развёртки : Прогрессивная
Метод сжатия : С потерями
Бит/(Пиксели*Кадры) : 0.480
Размер потока : 1,22 Гбайт (84%)
Библиотека кодирования : XviD 73

Аудио
Идентификатор : 1
Формат : AC-3
Формат/Информация : Audio Coding 3
Расширение режима : CM (complete main)
Параметр Endianness формата : Big
Идентификатор кодека : 2000
Продолжительность : 1 ч. 13 м.
Вид битрейта : Постоянный
Битрейт : 448 Кбит/сек
Каналы : 6 каналов
Расположение каналов : Front: L C R, Side: L R, LFE
Частота : 48,0 КГц
Битовая глубина : 16 бит
Метод сжатия : С потерями
Задержка видео : 480 мс.
Размер потока : 236 Мбайт (16%)
Выравнивание : Разделение по промежуткам
Продолжительность промежутка : 40 мс. (1,00 видеокадр)
Время предзагрузки промежутка : 500 мс.



http://alt.rutor.org/torrent/59501/

http://screenshotcomparison.com/comparison/73207 - у конкурента недокроп справа, отсутствуют субтитры



   Похожие торренты   Торрент   Размер 
В этой теме нет новых непрочитанных сообщений. Однажды двадцать лет спустя (1980) DVDRip-AVC от New-Team

219 | 16

1.46 ГБ

В этой теме нет новых непрочитанных сообщений. Однажды двадцать лет спустя (1980) WEB-DLRip от New Team

114 | 6

1.45 ГБ

В этой теме нет новых непрочитанных сообщений. Однажды двадцать лет спустя (1980) WEB-DL 720p от New Team

130 | 20

2.27 ГБ

В этой теме нет новых непрочитанных сообщений. Однажды двадцать лет спустя (1980) DVD9 R5 от New-Team

99 | 9

5.78 ГБ

В этой теме нет новых непрочитанных сообщений. Однажды двадцать лет спустя (1980) DVD5 от New-Team | сжатый

113 | 5

4.33 ГБ

В этой теме нет новых непрочитанных сообщений. Однажды двадцать лет спустя (1980) DVDRip-AVC

655 | 28

700.41 МБ

В этой теме нет новых непрочитанных сообщений. Однажды двадцать лет спустя (1980) DVDRip

121 | 11

1.37 ГБ




Вы не можете начинать темы
Вы не можете отвечать на сообщения
Вы не можете редактировать свои сообщения
Вы не можете удалять свои сообщения
Вы не можете добавлять вложения

Перейти:  
Для Мосгорсуда, Роскомнадзора и рекламодателей: mosgorsud-torrent[собачка]yandex.ru
 Вход
ppkBB3cker v.2 © 2008-2014 @ PPK
[ Time : 0.034s | 15 Queries | GZIP : Off ]

Торрент трекер RUTOR.IN, Не можете зайти на rutor.org? Какой новый адрес рутор? Какое зеркало рутор? Не работает rutor.org и зеркала? Тогда наш торрент специально для вас. Rutor.in неофициальное зеркало rutor. В случае если у Вас заблокирован rutor или вдруг Вы не можете на него зайти, то Вы без труда сможете скачать бесплатно и без рекламы последние новинки кино, игр, сериалов и прочего у нас, на Rutor.in. Не нужно использовать прокси, чтобы зайти на рутор, достаточно воспользоваться нашим ресурсом. Все новые фильмы, игры, сериалы, книги и музыка за 2013 и 2014 годы через торрент бесплатно. Скачивайте фильмы в хорошем качестве, игры для пк, xbox, playstation без регистрации. У нас вы найдете новые Зарубежные сериалы и Русские сериалы 2013, 2014, 2015 годов. Оставайтесь с нами, качайте любимые фильмы, игры, сериалы, книги и музыку.