img image001 image001 image001 image001 image001 image001 image001 image001 image001 image001 image001 image001 image001 image001 image001

Planets Sun Sun Sun
Статистика раздачи
Автор: Nickolas3434 | Размер: 1.46 ГБ | Добавлен: 06 май 2014
Раздают: 57    Качают: 16
Скачать торрент
Скачать торрент
Описание торрента

СообщениеДобавлено: 06 май 2014 

Информация о фильме
Название: Первая любовь
Год выхода: 2009
Жанр: Комедия, мелодрама, мюзикл
Режиссер: Егор Дружинин
В ролях: Юлия Савичева, Илзе Лиепа, Дмитрий Бурукин, Юрий Чернов, Александр Крылов, Игорь Балалаев, Сергей Зарубин, Дмитрий Адамович, Илья Глинников, Ольга Карпухова

О фильме:
Дом культуры, где Таня занимается танцами, собираются перестраивать под развлекательный комплекс, и скоро ей негде будет репетировать. В ночном клубе она случайно знакомится с Сашей, сыном владельца ДК, и постепенно он тоже увлекается танцами. Чтобы отец Саши понял, насколько для них важны танцы, музыка и творчество, ребята придумывают и ставят целое танцевальное шоу…



Страна: Россия
Студия: СТС, Монументал пикчерз
Продолжительность: 01:28:07
Перевод: Не требуется

Файл
Кодек: XviD
Качество: DVDRip
Видео: XviD, 704x384 (16:9), 1986 Кбит/с, 25 кадр/с
Звук: Русский, Dolby AC3, 48000 Гц, 384 Кбит/с, 6 каналов (5.1)
Субтитры: Нет



Автор рипа - ivandubskoj

General
Complete name : Pervaya.lyubov'.2009.DVDRip.avi
Format : AVI
Format/Info : Audio Video Interleave
File size : 1.46 GiB
Duration : 1h 28mn
Overall bit rate : 2 377 Kbps
Movie name : Первая любовь (2009) DVDRip
Genre : Комедия, мелодрама, мюзикл
Recorded date : 04.05.2014
Writing application : VirtualDubMod 1.5.10.3 | www.virtualdub-fr.org || (build 2550/release)
Writing library : VirtualDubMod build 2550/release
Copyright : rip by ivandubskoj

Video
ID : 0
Format : MPEG-4 Visual
Format profile : Advanced Simple@L5
Format settings, BVOP : 1
Format settings, QPel : No
Format settings, GMC : No warppoints
Format settings, Matrix : Default (MPEG)
Codec ID : XVID
Codec ID/Hint : XviD
Duration : 1h 28mn
Bit rate : 1 986 Kbps
Width : 704 pixels
Height : 384 pixels
Display aspect ratio : 16:9
Frame rate : 25.000 fps
Color space : YUV
Chroma subsampling : 4:2:0
Bit depth : 8 bits
Scan type : Progressive
Compression mode : Lossy
Bits/(Pixel*Frame) : 0.294
Stream size : 1.22 GiB (84%)
Writing library : XviD 73

Audio
ID : 1
Format : AC-3
Format/Info : Audio Coding 3
Mode extension : CM (complete main)
Codec ID : 2000
Duration : 1h 28mn
Bit rate mode : Constant
Bit rate : 384 Kbps
Channel(s) : 6 channels
Channel positions : Front: L C R, Side: L R, LFE
Sampling rate : 48.0 KHz
Bit depth : 16 bits
Compression mode : Lossy
Stream size : 242 MiB (16%)
Alignment : Split accross interleaves
Interleave, duration : 64 ms (1.60 video frames)
Interleave, preload duration : 500 ms
Title : Russian



   Похожие торренты   Торрент   Размер 
В этой теме нет новых непрочитанных сообщений. Первая любовь (2009) DVDRip

29 | 3

1.37 ГБ

В этой теме нет новых непрочитанных сообщений. Первая любовь (2009) DVD-9

18 | 15

5.57 ГБ

В этой теме нет новых непрочитанных сообщений. Мисс популярность. Первая любовь / My Boyfriend (2009) PC | Лицезия

30 | 7

1.09 ГБ

В этой теме нет новых непрочитанных сообщений. Нереальная любовь (2014) DVDRip от ivandubskoj

487 | 41

704.52 МБ

В этой теме нет новых непрочитанных сообщений. Нереальная любовь (2014) DVDRip от ivandubskoj

177 | 52

691.71 МБ

В этой теме нет новых непрочитанных сообщений. Первая любовь / İlk Aşk (2006) DVDRip | L2

30 | 8

2.18 ГБ

В этой теме нет новых непрочитанных сообщений. Первая любовь / 1er amour (2013) DVDRip | L1

403 | 72

1.38 ГБ




Вы не можете начинать темы
Вы не можете отвечать на сообщения
Вы не можете редактировать свои сообщения
Вы не можете удалять свои сообщения
Вы не можете добавлять вложения

Перейти:  
Для Мосгорсуда, Роскомнадзора и рекламодателей: mosgorsud-torrent[собачка]yandex.ru
 Вход
ppkBB3cker v.2 © 2008-2014 @ PPK
[ Time : 0.024s | 17 Queries | GZIP : Off ]

Торрент трекер RUTOR.IN, Не можете зайти на rutor.org? Какой новый адрес рутор? Какое зеркало рутор? Не работает rutor.org и зеркала? Тогда наш торрент специально для вас. Rutor.in неофициальное зеркало rutor. В случае если у Вас заблокирован rutor или вдруг Вы не можете на него зайти, то Вы без труда сможете скачать бесплатно и без рекламы последние новинки кино, игр, сериалов и прочего у нас, на Rutor.in. Не нужно использовать прокси, чтобы зайти на рутор, достаточно воспользоваться нашим ресурсом. Все новые фильмы, игры, сериалы, книги и музыка за 2013 и 2014 годы через торрент бесплатно. Скачивайте фильмы в хорошем качестве, игры для пк, xbox, playstation без регистрации. У нас вы найдете новые Зарубежные сериалы и Русские сериалы 2013, 2014, 2015 годов. Оставайтесь с нами, качайте любимые фильмы, игры, сериалы, книги и музыку.