img image001 image001 image001 image001 image001 image001 image001 image001 image001 image001 image001 image001 image001 image001 image001

Planets Sun Sun Sun
Статистика раздачи
Автор: PriZraK | Размер: 5.77 ГБ | Добавлен: 16 май 2014
Раздают: 81    Качают: 11
Скачать торрент
Скачать торрент
Описание торрента

СообщениеДобавлено: 16 май 2014 

Информация о фильме
Название: Спираль
Год выхода: 2013
Жанр: боевик
Режиссер: Андрей Волгин
В ролях: Константин Крюков, Анатолий Руденко, Вениамин Смехов, Александр Яцко, Никита Высоцкий, Кларисса Барская, Константин Глушков, Владимир Стержаков, Марина Куделинская, Рената Пиотровски
О фильме:
Главный герой истории — Алексей, талантливый программист из Новосибирска, приезжает в Москву и становится членом закрытого полулегального элитного клуба под названием «Спираль». Как новичку ему крупно везет, и он выигрывает одну экстремальную игру клуба за другой, получая сумасшедшие гонорары. В него влюбляется такая девушка, о какой он даже не мог мечтать.
Но в одночасье красивый мир вокруг него рушится, и он влипает в крупные неприятности — его обвиняют в ограблении банка, любимая девушка не верит в его невиновность, и в довершении всего его пытаются убить…

Выпущено: Россия
Продолжительность: 01:37:40
Перевод: Оригинал
Файл
Кодек: x264
Качество: BDRip 1080p
Видео: 1920x804, 7816 Kbps, 25,000 fps
Аудио: AC-3, 6 ch, 640 kbps (Rus)
Субтитры: нет
Общее
Уникальный идентификатор : 240840557195540213827195839557606206713 (0xB530343F694B737B9A3F012BCF426CF9)
Полное имя : Спираль.2013.BDRip.1080p.Rus.mkv
Формат : Matroska
Версия формата : Version 2
Размер файла : 5,77 Гбайт
Продолжительность : 1 ч. 37 м.
Общий поток : 8455 Кбит/сек
Название фильма : Спираль.2013
Дата кодирования : UTC 2014-05-06 14:56:54
Программа кодирования : mkvmerge v5.8.0 ('No Sleep / Pillow') built on Sep 2 2012 15:37:04
Библиотека кодирования : libebml v1.2.3 + libmatroska v1.3.0
Обложка : Yes
Видео
Идентификатор : 1
Формат : AVC
Формат/Информация : Advanced Video Codec
Профиль формата : High@L4.1
Параметр CABAC формата : Да
Параметр ReFrames формата : 4 кадра
Идентификатор кодека : V_MPEG4/ISO/AVC
Продолжительность : 1 ч. 37 м.
Битрейт : 7816 Кбит/сек
Ширина : 1920 пикселей
Высота : 804 пикселя
Соотношение сторон : 2,40:1
Режим частоты кадров : Постоянный
Частота кадров : 25,000 кадров/сек
Цветовое пространство : YUV
Субдискретизация насыщенности : 4:2:0
Битовая глубина : 8 бит
Тип развёртки : Прогрессивная
Бит/(Пиксели*Кадры) : 0.203
Размер потока : 5,22 Гбайт (90%)
Заголовок : Rip by Boriy
Библиотека кодирования : x264 core 142 r2431 ac76440
Настройки программы : cabac=1 / ref=4 / deblock=1:-3:-3 / analyse=0x3:0x113 / me=umh / subme=11 / psy=1 / psy_rd=1.00:0.00 / mixed_ref=1 / me_range=32 / chroma_me=1 / trellis=2 / 8x8dct=1 / cqm=0 / deadzone=21,11 / fast_pskip=0 / chroma_qp_offset=-2 / threads=12 / lookahead_threads=1 / sliced_threads=0 / nr=0 / decimate=0 / interlaced=0 / bluray_compat=0 / constrained_intra=0 / bframes=6 / b_pyramid=2 / b_adapt=2 / b_bias=0 / direct=3 / weightb=1 / open_gop=0 / weightp=2 / keyint=250 / keyint_min=25 / scenecut=40 / intra_refresh=0 / rc=2pass / mbtree=0 / bitrate=7816 / ratetol=1.0 / qcomp=0.60 / qpmin=0 / qpmax=69 / qpstep=4 / cplxblur=20.0 / qblur=0.5 / ip_ratio=1.40 / pb_ratio=1.30 / aq=1:0.80
Язык : English
Default : Да
Forced : Нет
Аудио
Идентификатор : 2
Формат : AC-3
Формат/Информация : Audio Coding 3
Расширение режима : CM (complete main)
Параметр Endianness формата : Big
Идентификатор кодека : A_AC3
Продолжительность : 1 ч. 37 м.
Вид битрейта : Постоянный
Битрейт : 640 Кбит/сек
Каналы : 6 каналов
Расположение каналов : Front: L C R, Side: L R, LFE
Частота : 48,0 КГц
Битовая глубина : 16 бит
Метод сжатия : С потерями
Размер потока : 447 Мбайт (8%)
Заголовок : Оригинал
Язык : Russian
Default : Да
Forced : Нет
Меню
00:00:00.000 : :Chapter 1
00:08:29.359 : :Chapter 2
00:19:05.400 : :Chapter 3
00:24:32.880 : :Chapter 4
00:32:32.280 : :Chapter 5
00:39:00.520 : :Chapter 6
00:48:09.280 : :Chapter 7
00:56:34.480 : :Chapter 8
01:04:08.400 : :Chapter 9
01:12:22.800 : :Chapter 10
01:21:00.240 : :Chapter 11
01:33:03.880 : :Chapter 12



   Похожие торренты   Торрент   Размер 
В этой теме нет новых непрочитанных сообщений. Спираль (2014) BDRip 1080p | Лицензия

96 | 47

7.09 ГБ

В этой теме нет новых непрочитанных сообщений. Спираль (2014) BDRip 1080p от MediaClub | Лицензия

77 | 50

7.06 ГБ

В этой теме нет новых непрочитанных сообщений. Спираль (2013) BDRip 720p

304 | 49

2.85 ГБ

В этой теме нет новых непрочитанных сообщений. Спираль (2013) BDRip-AVC от RG WazZzuP | Лицензия

64 | 2

744.53 МБ

В этой теме нет новых непрочитанных сообщений. Спираль (2013) BDRip-AVC от HELLYWOOD | Лицензия

201 | 12

1.45 ГБ

В этой теме нет новых непрочитанных сообщений. Спираль (2013) BDRip от HQCLUB | Лицензия

595 | 25

1.45 ГБ

В этой теме нет новых непрочитанных сообщений. Спираль / Helix [S01] (2014) WEB-DL 1080p | AlexFilm

0 | 62

20.63 ГБ




Вы не можете начинать темы
Вы не можете отвечать на сообщения
Вы не можете редактировать свои сообщения
Вы не можете удалять свои сообщения
Вы не можете добавлять вложения

Перейти:  
Для Мосгорсуда, Роскомнадзора и рекламодателей: mosgorsud-torrent[собачка]yandex.ru
 Вход
ppkBB3cker v.2 © 2008-2014 @ PPK
[ Time : 0.048s | 17 Queries | GZIP : Off ]

cron