img image001 image001 image001 image001 image001 image001 image001 image001 image001 image001 image001 image001 image001 image001 image001

Planets Sun Sun Sun
Статистика раздачи
Автор: PriZraK | Размер: 2.91 ГБ | Добавлен: 17 май 2014
Раздают: 188    Качают: 12
Скачать торрент
Скачать торрент
Описание торрента

СообщениеДобавлено: 17 май 2014 

Страна: Россия
Производство: Ленфильм, Министерство культуры Российской Федерации, Студия Север
Жанр: фантастика, драма
Год выпуска: 2013
Продолжительность: 2:57:09
Перевод: не требуется
Оригинальная аудиодорожка: русский
Cубтитры: нет
Режиссер: Алексей Герман
В ролях:
Леонид Ярмольник, Юрий Цурило, Наталья Мотева, Александр Чутко, Евгений Герчаков, Александр Ильин, Пётр Меркурьев, Олег Ботин, Константин Быков, Юрий Думчев...
Описание:
На планете, погружённой в глухое Средневековье, работают наблюдатели-земляне, которые пытаются бережно подправлять ход событий, не нарушая логическое развитие истории. Главный герой, дон Румата Эсторский, осознавая свою задачу сохранения нейтралитета, тем не менее, не выдерживает, когда в Арканаре (одном из городов планеты) захватывает власть «чёрное братство», свергнувшее господство «серых», столь же отвратительных, но не столь кровавых. Румата берётся за меч, чтобы покарать злодеев, и тем самым нарушает все правила и закономерности, вмешиваясь в чужой исторический процесс…







Исходник: WEB-DL 720p
Тип релиза: WEB-DLRip-AVC
Контейнер: MKV
Видео: 1024x576 (16:9), 24,000 fps, H264 ~ 1965 kbps avg, 0.139 bit/pixel
Аудио: 48 kHz, Dolby Digital AC3 5.1, 384 kbps
Оригинальная навигация по главам: есть
Раздача от:
Общее
Полное имя : Trudno.byt.Bogom.2013.WEB-DLRip-AVC_[New-team]_by_AVP_Studio.mkv
Формат : Matroska
Версия формата : Version 4 / Version 2
Размер файла : 2,91 Гбайт
Продолжительность : 2 ч. 57 м.
Общий поток : 2350 Кбит/сек
Название фильма : Trudno.byt.Bogom.2013.WEB-DLRip-AVC_[New-team]_by_AVP_Studio
Дата кодирования : UTC 2014-05-07 07:51:26
Программа кодирования : mkvmerge v6.9.1 ('Blue Panther') 64bit built on Apr 18 2014 18:23:38
Библиотека кодирования : libebml v1.3.0 + libmatroska v1.4.1
Видео
Идентификатор : 1
Формат : AVC
Формат/Информация : Advanced Video Codec
Профиль формата : High@L4.1
Параметр CABAC формата : Да
Параметр ReFrames формата : 8 кадров
Идентификатор кодека : V_MPEG4/ISO/AVC
Продолжительность : 2 ч. 57 м.
Битрейт : 1965 Кбит/сек
Ширина : 1024 пикселя
Высота : 576 пикселей
Соотношение сторон : 16:9
Режим частоты кадров : Постоянный
Частота кадров : 24,000 кадра/сек
Цветовое пространство : YUV
Субдискретизация насыщенности : 4:2:0
Битовая глубина : 8 бит
Тип развёртки : Прогрессивная
Бит/(Пиксели*Кадры) : 0.139
Размер потока : 2,38 Гбайт (82%)
Заголовок : Источник WEB-DL
Библиотека кодирования : x264 core 138 r2356 a1d3d17
Настройки программы : cabac=1 / ref=8 / deblock=1:-3:-2 / analyse=0x3:0x113 / me=umh / subme=10 / psy=1 / psy_rd=1.00:0.05 / mixed_ref=1 / me_range=32 / chroma_me=1 / trellis=2 / 8x8dct=1 / cqm=0 / deadzone=21,11 / fast_pskip=0 / chroma_qp_offset=-3 / threads=3 / lookahead_threads=1 / sliced_threads=0 / nr=0 / decimate=0 / interlaced=0 / bluray_compat=0 / constrained_intra=0 / bframes=8 / b_pyramid=2 / b_adapt=2 / b_bias=0 / direct=3 / weightb=1 / open_gop=0 / weightp=2 / keyint=240 / keyint_min=24 / scenecut=40 / intra_refresh=0 / rc_lookahead=40 / rc=2pass / mbtree=1 / bitrate=1965 / ratetol=1.0 / qcomp=0.60 / qpmin=0 / qpmax=69 / qpstep=4 / cplxblur=20.0 / qblur=0.5 / ip_ratio=1.40 / aq=1:1.00
Язык : Russian
Default : Да
Forced : Нет
Аудио
Идентификатор : 2
Формат : AC-3
Формат/Информация : Audio Coding 3
Расширение режима : CM (complete main)
Параметр Endianness формата : Big
Идентификатор кодека : A_AC3
Продолжительность : 2 ч. 57 м.
Вид битрейта : Постоянный
Битрейт : 384 Кбит/сек
Каналы : 6 каналов
Расположение каналов : Front: L C R, Side: L R, LFE
Частота : 48,0 КГц
Битовая глубина : 16 бит
Метод сжатия : С потерями
Размер потока : 487 Мбайт (16%)
Заголовок : Источник WEB-DL Dolby Digital 5,1 384kb
Язык : Russian
Default : Да
Forced : Нет
Меню
00:00:00.000 : en:Глава 1
00:11:52.000 : en:Глава 2
00:19:04.000 : en:Глава 3
00:26:11.000 : en:Глава 4
00:33:22.000 : en:Глава 5
00:40:26.000 : en:Глава 6
00:47:26.000 : en:Глава 7
00:54:26.000 : en:Глава 8
01:01:26.000 : en:Глава 9
01:08:27.000 : en:Глава 10
01:15:29.000 : en:Глава 11
01:22:31.000 : en:Глава 12
01:29:35.000 : en:Глава 13
01:36:37.000 : en:Глава 14
01:43:40.000 : en:Глава 15
01:50:45.000 : en:Глава 16
01:57:47.000 : en:Глава 17
02:04:50.000 : en:Глава 18
02:11:52.000 : en:Глава 19
02:18:58.000 : en:Глава 20
02:26:00.000 : en:Глава 21
02:33:02.000 : en:Глава 22
02:40:04.000 : en:Глава 23
02:47:06.000 : en:Глава 24





   Похожие торренты   Торрент   Размер 
В этой теме нет новых непрочитанных сообщений. Трудно быть Богом (2013) DVD9 R5 от New-Team | лицензия

107 | 11

6.84 ГБ

В этой теме нет новых непрочитанных сообщений. Трудно быть Богом (2013) WEB-DLRip | iTunes

1533 | 340

1.37 ГБ

В этой теме нет новых непрочитанных сообщений. Трудно быть Богом (2013) WEB-DLRip | iTunes

1555 | 606

2.05 ГБ

В этой теме нет новых непрочитанных сообщений. Трудно быть Богом (2013) WEB-DL 720p | iTunes

593 | 336

5.7 ГБ

В этой теме нет новых непрочитанных сообщений. Трудно быть богом (2013) BDRip 1080p

184 | 28

15.3 ГБ

В этой теме нет новых непрочитанных сообщений. Трудно быть Богом (2013) BDRip от -=HD-NET=- | Лицензия

164 | 9

2.74 ГБ

В этой теме нет новых непрочитанных сообщений. Трудно быть Богом (2013) BDRip-AVC | iPad

73 | 11

5.12 ГБ




Вы не можете начинать темы
Вы не можете отвечать на сообщения
Вы не можете редактировать свои сообщения
Вы не можете удалять свои сообщения
Вы не можете добавлять вложения

Перейти:  
Для Мосгорсуда, Роскомнадзора и рекламодателей: mosgorsud-torrent[собачка]yandex.ru
 Вход
ppkBB3cker v.2 © 2008-2014 @ PPK
[ Time : 0.028s | 15 Queries | GZIP : On ]

Торрент трекер RUTOR.IN, Не можете зайти на rutor.org? Какой новый адрес рутор? Какое зеркало рутор? Не работает rutor.org и зеркала? Тогда наш торрент специально для вас. Rutor.in неофициальное зеркало rutor. В случае если у Вас заблокирован rutor или вдруг Вы не можете на него зайти, то Вы без труда сможете скачать бесплатно и без рекламы последние новинки кино, игр, сериалов и прочего у нас, на Rutor.in. Не нужно использовать прокси, чтобы зайти на рутор, достаточно воспользоваться нашим ресурсом. Все новые фильмы, игры, сериалы, книги и музыка за 2013 и 2014 годы через торрент бесплатно. Скачивайте фильмы в хорошем качестве, игры для пк, xbox, playstation без регистрации. У нас вы найдете новые Зарубежные сериалы и Русские сериалы 2013, 2014, 2015 годов. Оставайтесь с нами, качайте любимые фильмы, игры, сериалы, книги и музыку.