img image001 image001 image001 image001 image001 image001 image001 image001 image001 image001 image001 image001 image001 image001 image001

Planets Sun Sun Sun
Статистика раздачи
Автор: PriZraK | Размер: 2.19 ГБ | Добавлен: 17 май 2014
Раздают: 17    Качают: 2
Скачать торрент
Скачать торрент
Описание торрента

СообщениеДобавлено: 17 май 2014 

Страна: СССР
Производство: Cinebridge, Мосфильм, Слово
Жанр: драма, комедия, фэнтези
Год выпуска: 1991
Продолжительность: 01:57:34 (00:57:17 + 01:00:17)
Перевод: не требуется
Оригинальная аудиодорожка: русский
Cубтитры: нет
Режиссер: Эльдар Рязанов
В ролях:
Лия Ахеджакова, Ольга Волкова, Валентин Гафт, Леонид Броневой, Олег Басилашвили, Светлана Немоляева, Наталья Гундарева, Михаил Филиппов, Сергей Арцибашев, Вячеслав Невинный, Роман Карцев, Александр Пашутин, Наталья Щукина, Нина Русланова, Джон Кохан, Александр Панкратов-Чёрный, Александр Белявский, Сергей Данилевич, Мария Виноградова, Татьяна Гаврилова, Валерий Носик, Станислав Садальский, Федор Дунаевский, Игорь Ветров, Людмила Иванова, Татьяна Кравченко, Зинаида Кулакова, Юрий Митрофанов, Нина Агапова, Александр Пятков, Виталий Леонов, Виктор Махмутов, Эльдар Рязанов, Тамара Максимова...
Описание:
Трагикомическая история о бездомных людях, живущих на городской свалке, об их судьбах, радостях и горестях. Они борются за место под солнцем с городскими властями, отстаивая свое право жить на земле не страшась даже танков, посланных чиновниками…





Исходник: DVD9 R5
Тип релиза: DVDRip
Контейнер: AVI
Видео: 704x528 (4:3), 25 fps, XviD ~ 2206 kbps avg, 0.237 bit/pixel
Аудио: 48 kHz, Dolby Digital AC3 5.1, 448 kbps
Раздача от:
Общее
Полное имя : Nebesa.obetovannye.1991.DVDRip_[New-team]_by_AVP_Studio.avi
Формат : AVI
Формат/Информация : Audio Video Interleave
Профиль формата : OpenDML
Размер файла : 2,19 Гбайт
Продолжительность : 1 ч. 57 м.
Общий поток : 2666 Кбит/сек
Программа кодирования : VirtualDubModRus 1.5.10.2 (build 2542/release)
Библиотека кодирования : VirtualDubMod build 2542/release
Видео
Идентификатор : 0
Формат : MPEG-4 Visual
Профиль формата : Advanced Simple@L5
Параметр BVOP формата : 1
Параметр QPel формата : Нет
Параметр GMC формата : Без точки перехода
Параметр матрицы формата : Выборочная
Идентификатор кодека : XVID
Идентификатор кодека/Подсказка : XviD
Продолжительность : 1 ч. 57 м.
Битрейт : 2206 Кбит/сек
Ширина : 704 пикселя
Высота : 528 пикселей
Соотношение сторон : 4:3
Частота кадров : 25,000 кадров/сек
Цветовое пространство : YUV
Субдискретизация насыщенности : 4:2:0
Битовая глубина : 8 бит
Тип развёртки : Прогрессивная
Метод сжатия : С потерями
Бит/(Пиксели*Кадры) : 0.237
Размер потока : 1,81 Гбайт (83%)
Библиотека кодирования : XviD 73
Аудио
Идентификатор : 1
Формат : AC-3
Формат/Информация : Audio Coding 3
Расширение режима : CM (complete main)
Параметр Endianness формата : Big
Идентификатор кодека : 2000
Продолжительность : 1 ч. 57 м.
Вид битрейта : Постоянный
Битрейт : 448 Кбит/сек
Каналы : 6 каналов
Расположение каналов : Front: L C R, Side: L R, LFE
Частота : 48,0 КГц
Битовая глубина : 16 бит
Метод сжатия : С потерями
Размер потока : 377 Мбайт (17%)
Выравнивание : Разделение по промежуткам
Продолжительность промежутка : 40 мс. (1,00 видеокадр)
Время предзагрузки промежутка : 500 мс





   Похожие торренты   Торрент   Размер 
В этой теме нет новых непрочитанных сообщений. Небеса обетованные (1991) DVDRip-AVC от New-Team

79 | 15

2.19 ГБ

В этой теме нет новых непрочитанных сообщений. Небеса обетованные (1991) DVDRip от New-Team

99 | 12

1.46 ГБ

В этой теме нет новых непрочитанных сообщений. Небеса обетованные (1991) DVDRip-AVC

86 | 12

2.26 ГБ

В этой теме нет новых непрочитанных сообщений. Небеса обетованные (1991) DVDRip

9 | 4

1.37 ГБ

В этой теме нет новых непрочитанных сообщений. Небеса обетованные (1991) DVDRip от ExKinoRay

66 | 10

1.36 ГБ

В этой теме нет новых непрочитанных сообщений. Небеса обетованные (1991) DVDRip-AVC от ExKinoRay

292 | 49

2.63 ГБ

В этой теме нет новых непрочитанных сообщений. Холодные небеса / Cold Heaven (1991) HDTVRip | A

126 | 15

1.46 ГБ




Вы не можете начинать темы
Вы не можете отвечать на сообщения
Вы не можете редактировать свои сообщения
Вы не можете удалять свои сообщения
Вы не можете добавлять вложения

Перейти:  
Для Мосгорсуда, Роскомнадзора и рекламодателей: mosgorsud-torrent[собачка]yandex.ru
 Вход
ppkBB3cker v.2 © 2008-2014 @ PPK
[ Time : 0.065s | 16 Queries | GZIP : On ]

Торрент трекер RUTOR.IN, Не можете зайти на rutor.org? Какой новый адрес рутор? Какое зеркало рутор? Не работает rutor.org и зеркала? Тогда наш торрент специально для вас. Rutor.in неофициальное зеркало rutor. В случае если у Вас заблокирован rutor или вдруг Вы не можете на него зайти, то Вы без труда сможете скачать бесплатно и без рекламы последние новинки кино, игр, сериалов и прочего у нас, на Rutor.in. Не нужно использовать прокси, чтобы зайти на рутор, достаточно воспользоваться нашим ресурсом. Все новые фильмы, игры, сериалы, книги и музыка за 2013 и 2014 годы через торрент бесплатно. Скачивайте фильмы в хорошем качестве, игры для пк, xbox, playstation без регистрации. У нас вы найдете новые Зарубежные сериалы и Русские сериалы 2013, 2014, 2015 годов. Оставайтесь с нами, качайте любимые фильмы, игры, сериалы, книги и музыку.
cron