img image001 image001 image001 image001 image001 image001 image001 image001 image001 image001 image001 image001 image001 image001 image001

Planets Sun Sun Sun
Статистика раздачи
Автор: PriZraK | Размер: 2.19 ГБ | Добавлен: 17 май 2014
Раздают: 79    Качают: 15
Скачать торрент
Скачать торрент
Описание торрента

СообщениеДобавлено: 17 май 2014 

Страна: СССР
Производство: Cinebridge, Мосфильм, Слово
Жанр: драма, комедия, фэнтези
Год выпуска: 1991
Продолжительность: 01:57:34 (00:57:17 + 01:00:17)
Перевод: не требуется
Оригинальная аудиодорожка: русский
Cубтитры: нет
Режиссер: Эльдар Рязанов
В ролях:
Лия Ахеджакова, Ольга Волкова, Валентин Гафт, Леонид Броневой, Олег Басилашвили, Светлана Немоляева, Наталья Гундарева, Михаил Филиппов, Сергей Арцибашев, Вячеслав Невинный, Роман Карцев, Александр Пашутин, Наталья Щукина, Нина Русланова, Джон Кохан, Александр Панкратов-Чёрный, Александр Белявский, Сергей Данилевич, Мария Виноградова, Татьяна Гаврилова, Валерий Носик, Станислав Садальский, Федор Дунаевский, Игорь Ветров, Людмила Иванова, Татьяна Кравченко, Зинаида Кулакова, Юрий Митрофанов, Нина Агапова, Александр Пятков, Виталий Леонов, Виктор Махмутов, Эльдар Рязанов, Тамара Максимова...
Описание:
Трагикомическая история о бездомных людях, живущих на городской свалке, об их судьбах, радостях и горестях. Они борются за место под солнцем с городскими властями, отстаивая свое право жить на земле не страшась даже танков, посланных чиновниками…





Исходник: DVD9 R5
Тип релиза: DVDRip-AVC
Контейнер: MKV
Видео: 712->762x572 (4:3), 25 fps, H264 ~ 2212 kbps avg, 0.217 bit/pixel
Аудио: 48 kHz, Dolby Digital AC3 5.1, 448 kbps
Раздача от:
Общее
Полное имя : Nebesa.obetovannye.1991.DVDRip-AVC_[New-team]_by_AVP_Studio.mkv
Формат : Matroska
Версия формата : Version 2
Размер файла : 2,19 Гбайт
Продолжительность : 1 ч. 57 м.
Общий поток : 2662 Кбит/сек
Дата кодирования : UTC 2014-05-07 18:14:26
Программа кодирования : mkvmerge v6.1.0 ('Old Devil') built on Mar 4 2013 09:10:42
Библиотека кодирования : libebml v1.3.0 + libmatroska v1.4.0
Видео
Идентификатор : 1
Формат : AVC
Формат/Информация : Advanced Video Codec
Профиль формата : High@L4.1
Параметр CABAC формата : Да
Параметр ReFrames формата : 8 кадров
Идентификатор кодека : V_MPEG4/ISO/AVC
Продолжительность : 1 ч. 57 м.
Битрейт : 2212 Кбит/сек
Ширина : 712 пикселей
Высота : 572 пикселя
Соотношение сторон : 4:3
Соотношение сторон в оригинале : 4:3
Режим частоты кадров : Постоянный
Частота кадров : 25,000 кадров/сек
Цветовое пространство : YUV
Субдискретизация насыщенности : 4:2:0
Битовая глубина : 8 бит
Тип развёртки : Прогрессивная
Бит/(Пиксели*Кадры) : 0.217
Размер потока : 1,77 Гбайт (81%)
Библиотека кодирования : x264 core 138 r2356 a1d3d17
Настройки программы : cabac=1 / ref=8 / deblock=1:-2:-1 / analyse=0x3:0x113 / me=umh / subme=10 / psy=1 / psy_rd=1.00:0.05 / mixed_ref=1 / me_range=32 / chroma_me=1 / trellis=2 / 8x8dct=1 / cqm=0 / deadzone=21,11 / fast_pskip=0 / chroma_qp_offset=-3 / threads=3 / lookahead_threads=1 / sliced_threads=0 / nr=0 / decimate=0 / interlaced=0 / bluray_compat=0 / constrained_intra=0 / bframes=8 / b_pyramid=2 / b_adapt=2 / b_bias=0 / direct=3 / weightb=1 / open_gop=0 / weightp=2 / keyint=250 / keyint_min=25 / scenecut=40 / intra_refresh=0 / rc=2pass / mbtree=0 / bitrate=2212 / ratetol=1.0 / qcomp=0.60 / qpmin=0 / qpmax=69 / qpstep=4 / cplxblur=20.0 / qblur=0.5 / ip_ratio=1.40 / pb_ratio=1.30 / aq=1:1.00
Default : Да
Forced : Нет
Аудио
Идентификатор : 2
Формат : AC-3
Формат/Информация : Audio Coding 3
Расширение режима : CM (complete main)
Параметр Endianness формата : Big
Идентификатор кодека : A_AC3
Продолжительность : 1 ч. 57 м.
Вид битрейта : Постоянный
Битрейт : 448 Кбит/сек
Каналы : 6 каналов
Расположение каналов : Front: L C R, Side: L R, LFE
Частота : 48,0 КГц
Битовая глубина : 16 бит
Метод сжатия : С потерями
Размер потока : 377 Мбайт (17%)
Default : Да
Forced : Нет





   Похожие торренты   Торрент   Размер 
В этой теме нет новых непрочитанных сообщений. Небеса обетованные (1991) DVDRip от New-Team

99 | 12

1.46 ГБ

В этой теме нет новых непрочитанных сообщений. Небеса обетованные (1991) DVDRip от New-Team

17 | 2

2.19 ГБ

В этой теме нет новых непрочитанных сообщений. Небеса обетованные (1991) DVDRip-AVC

86 | 12

2.26 ГБ

В этой теме нет новых непрочитанных сообщений. Небеса обетованные (1991) DVDRip

9 | 4

1.37 ГБ

В этой теме нет новых непрочитанных сообщений. Небеса обетованные (1991) DVDRip-AVC от ExKinoRay

292 | 49

2.63 ГБ

В этой теме нет новых непрочитанных сообщений. Небеса обетованные (1991) DVDRip от ExKinoRay

66 | 10

1.36 ГБ

В этой теме нет новых непрочитанных сообщений. Холодные небеса / Cold Heaven (1991) HDTVRip | A

126 | 15

1.46 ГБ




Вы не можете начинать темы
Вы не можете отвечать на сообщения
Вы не можете редактировать свои сообщения
Вы не можете удалять свои сообщения
Вы не можете добавлять вложения

Перейти:  
Для Мосгорсуда, Роскомнадзора и рекламодателей: mosgorsud-torrent[собачка]yandex.ru
 Вход
ppkBB3cker v.2 © 2008-2014 @ PPK
[ Time : 0.040s | 15 Queries | GZIP : On ]

Торрент трекер RUTOR.IN, Не можете зайти на rutor.org? Какой новый адрес рутор? Какое зеркало рутор? Не работает rutor.org и зеркала? Тогда наш торрент специально для вас. Rutor.in неофициальное зеркало rutor. В случае если у Вас заблокирован rutor или вдруг Вы не можете на него зайти, то Вы без труда сможете скачать бесплатно и без рекламы последние новинки кино, игр, сериалов и прочего у нас, на Rutor.in. Не нужно использовать прокси, чтобы зайти на рутор, достаточно воспользоваться нашим ресурсом. Все новые фильмы, игры, сериалы, книги и музыка за 2013 и 2014 годы через торрент бесплатно. Скачивайте фильмы в хорошем качестве, игры для пк, xbox, playstation без регистрации. У нас вы найдете новые Зарубежные сериалы и Русские сериалы 2013, 2014, 2015 годов. Оставайтесь с нами, качайте любимые фильмы, игры, сериалы, книги и музыку.