img image001 image001 image001 image001 image001 image001 image001 image001 image001 image001 image001 image001 image001 image001 image001

Planets Sun Sun Sun
Статистика раздачи
Автор: PriZraK | Размер: 2.82 ГБ | Добавлен: 17 май 2014
Раздают: 434    Качают: 17
Скачать торрент
Скачать торрент
Описание торрента

СообщениеДобавлено: 17 май 2014 

Собачье сердце (1988) BDRip-AVC | iPad

Название: Собачье сердце
Оригинальное название: Собачье сердце
Год выхода: 1988
Жанр: фантастика, драма, комедия
Режиссер: Владимир Бортко
В ролях: Владимир Толоконников, Евгений Евстигнеев, Борис Плотников, Роман Карцев, Нина Русланова, Ольга Мелихова, Алексей Миронов, Анжелика Неволина, Наталья Фоменко, Иван Ганжа, Борис Соколов, Игорь Ефимов, Валерий Кравченко
О фильме:
Профессор Преображенский ставит смелые опыты, пытаясь превратить собаку Шарика в равного себе во всем человека. В результате получается некто Шариков. К сожалению, опыт доказывает, что собаке лучше оставаться собакой.

Страна: СССР
Студия: Ленфильм
Продолжительность: 02:15:56
Перевод: не требуется
Файл
Кодек: H.264
Качество: BDRip [576p]
Видео: 760x576 (4:3) at 23.976 fps, AVC at 2900 kbps
Звук:
1: АAС 2.0 110 kbps - Русский
Субтитры: отсутствуют
General
Complete name : I:modoutSobache.Serdtse.part.1.1988.576p.O.m4v
Format : MPEG-4
Codec ID : M4V
File size : 1.47 GiB
Duration : 1h 7mn
Overall bit rate mode : Variable
Overall bit rate : 3 119 Kbps
Season : 1
Movie name : Собачье сердце
Album : Собачье сердце
Album/Sorted by : Собачье сердце
Part : 1
Part/Position : 1
Part/Total : 1
Track name/Position : 1
Track name/Total : 2
Performer : Vladimir Bortko
Genre : Fantasy
ContentType : TV Show
Deion : Профессор Преображенский ставит смелые опыты, пытаясь превратить собаку Шарика в равного себе во всем человека. В результате получается некто Шариков. К сожалению, опыт доказывает, что собаке лучше оставаться собакой.
Recorded date : UTC 1988-11-19 08:00:00
Encoded date : UTC 2014-05-12 07:18:25
Tagged date : UTC 2014-05-12 08:07:30
Cover : Yes
ContentRating : ru-movie|12+|200|
Title/Sort : Собачье сердце
LongDeion : Профессор Преображенский ставит смелые опыты, пытаясь превратить собаку Шарика в равного себе во всем человека. В результате получается некто Шариков. К сожалению, опыт доказывает, что собаке лучше оставаться собакой.
AppleStoreCatalogID : 77335
Vendor : Apple:vendor_id:1988-77335-0101
Video
ID : 1
Format : AVC
Format/Info : Advanced Video Codec
Format profile : High@L4.1
Format settings, CABAC : Yes
Format settings, ReFrames : 12 frames
Codec ID : avc1
Codec ID/Info : Advanced Video Coding
Duration : 1h 7mn
Bit rate : 2 994 Kbps
Maximum bit rate : 11.3 Mbps
Width : 760 pixels
Height : 576 pixels
Display aspect ratio : 4:3
Frame rate mode : Constant
Frame rate : 23.976 fps
Color space : YUV
Chroma subsampling : 4:2:0
Bit depth : 8 bits
Scan type : Progressive
Bits/(Pixel*Frame) : 0.285
Stream size : 1.41 GiB (96%)
Title : Sobache serdtse _1988_
Language : English
Encoded date : UTC 2014-05-12 07:18:25
Tagged date : UTC 2014-05-12 07:18:31
Audio
ID : 2
Format : AAC
Format/Info : Advanced Audio Codec
Format profile : LC
Codec ID : 40
Duration : 1h 7mn
Bit rate mode : Variable
Bit rate : 115 Kbps
Maximum bit rate : 234 Kbps
Channel(s) : 2 channels
Channel positions : Front: L R
Sampling rate : 48.0 KHz
Compression mode : Lossy
Stream size : 55.4 MiB (4%)
Title : Original
Language : Russian
Encoded date : UTC 2014-05-12 07:17:18
Tagged date : UTC 2014-05-12 07:18:31
General
Complete name : C:DOWNLOADSobache_SerdtseSobache.Serdtse.part.2.1988.576p.O.m4v
Format : MPEG-4
Codec ID : M4V
File size : 1.35 GiB
Duration : 1h 8mn
Overall bit rate mode : Variable
Overall bit rate : 2 820 Kbps
Season : 1
Movie name : Собачье сердце
Album : Собачье сердце
Album/Sorted by : Собачье сердце
Part : 2
Part/Position : 1
Part/Total : 1
Track name/Position : 2
Track name/Total : 2
Performer : Vladimir Bortko
Genre : Fantasy
ContentType : TV Show
Deion : Профессор Преображенский ставит смелые опыты, пытаясь превратить собаку Шарика в равного себе во всем человека. В результате получается некто Шариков. К сожалению, опыт доказывает, что собаке лучше оставаться собакой.
Recorded date : UTC 1988-11-19 08:00:00
Encoded date : UTC 2014-05-12 07:20:55
Tagged date : UTC 2014-05-12 08:07:53
Cover : Yes
ContentRating : ru-movie|12+|200|
Title/Sort : Собачье сердце
LongDeion : Профессор Преображенский ставит смелые опыты, пытаясь превратить собаку Шарика в равного себе во всем человека. В результате получается некто Шариков. К сожалению, опыт доказывает, что собаке лучше оставаться собакой.
AppleStoreCatalogID : 77335
Vendor : Apple:vendor_id:1988-77335-0102
Video
ID : 1
Format : AVC
Format/Info : Advanced Video Codec
Format profile : High@L4.1
Format settings, CABAC : Yes
Format settings, ReFrames : 12 frames
Codec ID : avc1
Codec ID/Info : Advanced Video Coding
Duration : 1h 8mn
Bit rate : 2 701 Kbps
Maximum bit rate : 9 572 Kbps
Width : 760 pixels
Height : 576 pixels
Display aspect ratio : 4:3
Frame rate mode : Constant
Frame rate : 23.976 fps
Color space : YUV
Chroma subsampling : 4:2:0
Bit depth : 8 bits
Scan type : Progressive
Bits/(Pixel*Frame) : 0.257
Stream size : 1.29 GiB (96%)
Title : Sobache serdtse _1988_
Language : English
Encoded date : UTC 2014-05-12 07:20:55
Tagged date : UTC 2014-05-12 07:21:00
Audio
ID : 2
Format : AAC
Format/Info : Advanced Audio Codec
Format profile : LC
Codec ID : 40
Duration : 1h 8mn
Bit rate mode : Variable
Bit rate : 109 Kbps
Maximum bit rate : 204 Kbps
Channel(s) : 2 channels
Channel positions : Front: L R
Sampling rate : 48.0 KHz
Compression mode : Lossy
Stream size : 53.4 MiB (4%)
Title : Original
Language : Russian
Encoded date : UTC 2014-05-12 07:19:47
Tagged date : UTC 2014-05-12 07:21:00
x264 [info]: frame I:547 Avg QP:16.51 size: 69071
x264 [info]: frame P:19767 Avg QP:18.37 size: 30293
x264 [info]: frame B:76939 Avg QP:20.03 size: 11459
x264 [info]: consecutive B-frames: 1.3% 1.3% 5.0% 17.6% 24.2% 39.9% 7.0% 1.0% 0.9% 0.4% 0.4% 0.2% 0.2% 0.6% 0.0%
x264 [info]: mb I I16..4: 8.7% 65.2% 26.1%
x264 [info]: mb P I16..4: 0.4% 12.8% 1.9% P16..4: 27.6% 35.0% 16.8% 4.2% 0.5% skip: 0.8%
x264 [info]: mb B I16..4: 0.0% 2.1% 0.2% B16..8: 32.4% 22.9% 4.1% direct: 9.1% skip:29.2% L0:34.4% L1:39.9% BI:25.7%
x264 [info]: 8x8 transform intra:85.0% inter:42.8%
x264 [info]: coded y,uvDC,uvAC intra: 98.6% 29.3% 7.3% inter: 37.0% 4.0% 0.7%
x264 [info]: i16 v,h,dc,p: 16% 3% 24% 57%
x264 [info]: i8 v,h,dc,ddl,ddr,vr,hd,vl,hu: 14% 10% 11% 8% 12% 11% 11% 11% 12%
x264 [info]: i4 v,h,dc,ddl,ddr,vr,hd,vl,hu: 13% 9% 4% 8% 15% 14% 13% 11% 12%
x264 [info]: i8c dc,h,v,p: 23% 49% 19% 9%
x264 [info]: Weighted P-Frames: Y:16.7% UV:1.8%
x264 [info]: ref P L0: 49.8% 14.2% 12.6% 5.9% 4.2% 3.3% 2.7% 1.7% 1.5% 1.4% 1.2% 1.2% 0.3% 0.0%
x264 [info]: ref B L0: 87.5% 5.4% 2.5% 1.2% 0.9% 0.7% 0.6% 0.4% 0.3% 0.3% 0.2%
x264 [info]: ref B L1: 96.1% 3.9%
x264 [info]: kb/s:2994.34
x264 [info]: frame I:556 Avg QP:16.40 size: 68800
x264 [info]: frame P:20676 Avg QP:18.33 size: 28631
x264 [info]: frame B:77066 Avg QP:19.98 size: 9785
x264 [info]: consecutive B-frames: 1.8% 1.6% 5.6% 18.9% 22.8% 40.7% 5.3% 1.0% 0.6% 0.4% 0.2% 0.3% 0.2% 0.5% 0.0%
x264 [info]: mb I I16..4: 7.9% 66.1% 26.1%
x264 [info]: mb P I16..4: 0.4% 10.7% 1.8% P16..4: 28.4% 35.3% 17.2% 4.7% 0.6% skip: 1.0%
x264 [info]: mb B I16..4: 0.0% 1.4% 0.2% B16..8: 32.4% 22.3% 3.8% direct: 8.0% skip:31.9% L0:33.8% L1:40.3% BI:26.0%
x264 [info]: 8x8 transform intra:83.0% inter:42.1%
x264 [info]: coded y,uvDC,uvAC intra: 98.2% 35.7% 11.1% inter: 33.5% 4.2% 0.9%
x264 [info]: i16 v,h,dc,p: 18% 4% 21% 56%
x264 [info]: i8 v,h,dc,ddl,ddr,vr,hd,vl,hu: 14% 10% 10% 8% 12% 11% 11% 11% 12%
x264 [info]: i4 v,h,dc,ddl,ddr,vr,hd,vl,hu: 13% 9% 4% 8% 15% 14% 13% 11% 12%
x264 [info]: i8c dc,h,v,p: 23% 45% 21% 11%
x264 [info]: Weighted P-Frames: Y:14.7% UV:1.2%
x264 [info]: ref P L0: 52.2% 14.4% 12.1% 5.5% 3.9% 3.0% 2.5% 1.5% 1.3% 1.2% 1.1% 1.0% 0.2% 0.0%
x264 [info]: ref B L0: 88.3% 5.1% 2.4% 1.1% 0.8% 0.6% 0.5% 0.3% 0.3% 0.3% 0.2%
x264 [info]: ref B L1: 96.2% 3.8%
x264 [info]: kb/s:2701.18
Sort Name: Собачье сердце
XID: Apple:vendor_id:1988-77335-0101
Content ID: 77335
Copyright: Ленфильм
ScreenWriters: Наталия Бортко, Михаил Булгаков
Director: Владимир Бортко
Cast: Владимир Толоконников, Евгений Евстигнеев, Борис Плотников, Роман Карцев, Нина Русланова, Ольга Мелихова, Алексей Миронов, Анжелика Неволина, Наталья Фоменко, Иван Ганжа, Борис Соколов, Игорь Ефимов, Валерий Кравченко / Evgeniy Evstigneev (Professor Preobrazhenski), Boris Plotnikov (Dr. Bormental), Vladimir Tolokonnikov (Poligraf Poligrafovich Sharikov), Roman Kartsev (Schwonder), Nina Ruslanova (Darya Petrovna), Olga Melikhova (Zinochka)
Rating: 12+
Long Deion: Профессор Преображенский ставит смелые опыты, пытаясь превратить собаку Шарика в равного себе во всем человека. В результате получается некто Шариков. К сожалению, опыт доказывает, что собаке лучше оставаться собакой.
Deion: Профессор Преображенский ставит смелые опыты, пытаясь превратить собаку Шарика в равного себе во всем человека. В результате получается некто Шариков. К сожалению, опыт доказывает, что собаке лучше оставаться собакой.
TV Season: 1
TV Episode #: 1
TV Show: Собачье сердце
Disk #: 1/1
Track #: 1/2
Release Date: 1988-11-19T08:00:00Z
Genre: Fantasy
Album: Собачье сердце
Artist: Vladimir Bortko
Name: Собачье сердце
Sort Album: Собачье сердце







   Похожие торренты   Торрент   Размер 
В этой теме нет новых непрочитанных сообщений. Собачье сердце (1988) BDRip-AVC | Реставрация

87 | 6

741.19 МБ

В этой теме нет новых непрочитанных сообщений. Собачье сердце (1988) BDRip от HQ-ViDEO

1122 | 62

2.18 ГБ

В этой теме нет новых непрочитанных сообщений. Собачье сердце (1988) BDRip от HELLYWOOD

462 | 24

2.18 ГБ

В этой теме нет новых непрочитанных сообщений. Собачье сердце (1988) BDRip-AVC от potroks

29 | 5

2.18 ГБ

В этой теме нет новых непрочитанных сообщений. Собачье сердце (1988) BDRip от HQCLUB

143 | 9

2.18 ГБ

В этой теме нет новых непрочитанных сообщений. Собачье сердце (1988) BDRip 720p от HQ-ViDEO

423 | 37

5.75 ГБ

В этой теме нет новых непрочитанных сообщений. Собачье сердце (1988) BDRip 1080p от HDReactor

83 | 24

12.45 ГБ




Вы не можете начинать темы
Вы не можете отвечать на сообщения
Вы не можете редактировать свои сообщения
Вы не можете удалять свои сообщения
Вы не можете добавлять вложения

Перейти:  
Для Мосгорсуда, Роскомнадзора и рекламодателей: mosgorsud-torrent[собачка]yandex.ru
 Вход
ppkBB3cker v.2 © 2008-2014 @ PPK
[ Time : 0.054s | 15 Queries | GZIP : Off ]

Торрент трекер RUTOR.IN, Не можете зайти на rutor.org? Какой новый адрес рутор? Какое зеркало рутор? Не работает rutor.org и зеркала? Тогда наш торрент специально для вас. Rutor.in неофициальное зеркало rutor. В случае если у Вас заблокирован rutor или вдруг Вы не можете на него зайти, то Вы без труда сможете скачать бесплатно и без рекламы последние новинки кино, игр, сериалов и прочего у нас, на Rutor.in. Не нужно использовать прокси, чтобы зайти на рутор, достаточно воспользоваться нашим ресурсом. Все новые фильмы, игры, сериалы, книги и музыка за 2013 и 2014 годы через торрент бесплатно. Скачивайте фильмы в хорошем качестве, игры для пк, xbox, playstation без регистрации. У нас вы найдете новые Зарубежные сериалы и Русские сериалы 2013, 2014, 2015 годов. Оставайтесь с нами, качайте любимые фильмы, игры, сериалы, книги и музыку.