img image001 image001 image001 image001 image001 image001 image001 image001 image001 image001 image001 image001 image001 image001 image001

Planets Sun Sun Sun
Статистика раздачи
Автор: Nickolas3434 | Размер: 4.37 ГБ | Добавлен: 25 май 2014
Раздают: 978    Качают: 83
Скачать торрент
Скачать торрент
Описание торрента

СообщениеДобавлено: 25 май 2014 

Страна: Россия
Жанр: детектив, история
Год выпуска: 2011
Продолжительность: 02:38:58
Перевод: Не требуется


Режиссер: Олег Рясков


В ролях: Сергей Чонишвили (Андрей Иванович Ушаков), Петр Красилов (Семен Плахов), Илья Соколовский (Иван Самойлов), Анна Снаткина (Анастасия Воронцова), Степан Коршунов (Воронцов), Михаил Полицеймако (секретарь посольства Великобритании), Екатерина Юдина (Энн), Дарья Мельникова (Фёкла), Андрей Рыклин (Бен Андерсен), Максим Дахненко (Ван-Гувер), Анна Носатова (Мари), Вячеслав Бондарчук (лекарь)


Описание: События происходят после смерти Петра Первого. Морской офицер Семен Плахов обвинен в убийстве фискального чиновника. Начальник тайной розыскной канцелярии Ушаков посылает этого офицера с важным поручением, освобождая его из-под стражи. С этого момента начинаются морские приключения. Во втором сезоне фильма присутствуют наряду с новыми героями герои первого сезона. Герои кинофильма побывают в Лондоне, в Новом Свете. Им предстоит сражаться с пиратами, побывать в плену у индейцев. Герои попытаются спасти от позорного рабства красавицу, которую беспутный братец проиграет в карты.






Качество: BDRip
Контейнер: MKV

Видео: AVC, 1280x720 (16:9), 3744 kbps, 25 fps, 0,162 bpp
Аудио: русский / AC3 / 2.0 / 48 kHz / 192 kbps
Навигация по главам: есть



Format : Matroska
Format version : Version 2
File size : 4.37 GiB
Duration : 2h 38mn
Overall bit rate : 3 937 Kbps
Movie name : = Записки экспедитора тайной канцелярии 2 BDRip 720p by SC Kosmos =
Encoded date : UTC 2014-05-16 15:53:11
Writing application : mkvmerge v3.3.0 ('Language') gebaut am Mar 24 2010 14:59:24
Writing library : libebml v0.8.0 + libmatroska v0.9.0

Video
ID : 1
Format : AVC
Format/Info : Advanced Video Codec
Format profile : High@L4.1
Format settings, CABAC : Yes
Format settings, ReFrames : 9 frames
Codec ID : V_MPEG4/ISO/AVC
Duration : 2h 38mn
Bit rate : 3 744 Kbps
Width : 1 280 pixels
Height : 720 pixels
Display aspect ratio : 16:9
Frame rate : 25.000 fps
Color space : YUV
Chroma subsampling : 4:2:0
Bit depth : 8 bits
Scan type : Progressive
Bits/(Pixel*Frame) : 0.162
Stream size : 4.07 GiB (93%)
Title : Записки экспедитора тайной канцелярии 2 BDRip 720p by SC Kosmos
Writing library : x264 core 142 r2409 d6b4e63
Encoding settings : cabac=1 / ref=9 / deblock=1:-3:-3 / analyse=0x3:0x113 / me=umh / subme=11 / psy=1 / psy_rd=1.00:0.00 / mixed_ref=1 / me_range=32 / chroma_me=1 / trellis=2 / 8x8dct=1 / cqm=0 / deadzone=21,11 / fast_pskip=0 / chroma_qp_offset=-2 / threads=12 / lookahead_threads=1 / sliced_threads=0 / nr=0 / decimate=1 / interlaced=0 / bluray_compat=0 / constrained_intra=0 / bframes=12 / b_pyramid=2 / b_adapt=1 / b_bias=0 / direct=3 / weightb=1 / open_gop=0 / weightp=2 / keyint=250 / keyint_min=25 / scenecut=40 / intra_refresh=0 / rc=2pass / mbtree=0 / bitrate=3744 / ratetol=1.0 / qcomp=0.60 / qpmin=0 / qpmax=69 / qpstep=4 / cplxblur=20.0 / qblur=0.5 / ip_ratio=1.40 / pb_ratio=1.30 / aq=1:1.00
Language : Russian
Default : No
Forced : No

Audio
ID : 2
Format : AC-3
Format/Info : Audio Coding 3
Mode extension : CM (complete main)
Codec ID : A_AC3
Duration : 2h 38mn
Bit rate mode : Constant
Bit rate : 192 Kbps
Channel(s) : 2 channels
Channel positions : Front: L R
Sampling rate : 48.0 KHz
Bit depth : 16 bits
Compression mode : Lossy
Stream size : 218 MiB (5%)
Language : Russian
Default : Yes
Forced : No

Menu
00:00:00.000 : en:00:00:00.000
00:12:28.040 : en:00:12:28.040
00:24:56.040 : en:00:24:56.040
00:37:24.080 : en:00:37:24.080
00:49:52.160 : en:00:49:52.160
01:02:20.160 : en:01:02:20.160
01:14:48.200 : en:01:14:48.200
01:27:16.280 : en:01:27:16.280
01:39:44.320 : en:01:39:44.320
01:52:12.320 : en:01:52:12.320
02:04:40.400 : en:02:04:40.400
02:17:08.440 : en:02:17:08.440
00:00:11.693 : en:00:00:11.693







   Похожие торренты   Торрент   Размер 
В этой теме нет новых непрочитанных сообщений. Записки экспедитора тайной канцелярии (2010) BDRip 720p

162 | 149

4.37 ГБ

В этой теме нет новых непрочитанных сообщений. Записки экспедитора тайной канцелярии [S01-02] (2010-2011) DVDRip-AVC

352 | 115

15.67 ГБ

В этой теме нет новых непрочитанных сообщений. Записки экспедитора тайной канцелярии [02х01-04 из 08] (2011) HDTV 1080i

49 | 22

10.4 ГБ

В этой теме нет новых непрочитанных сообщений. Записки экспедитора тайной канцелярии [02х01-04 из 08] (2011) HDTV 1080i

57 | 69

20.59 ГБ

В этой теме нет новых непрочитанных сообщений. Записки экспедитора тайной канцелярии [S01-02] (2010, 2011) 8DVD5 | custom

8 | 7

33.01 ГБ

В этой теме нет новых непрочитанных сообщений. Записки экспедитора Тайной канцелярии [01-08 из 8] (2010) DVDRip - LOOK

147 | 13

4.14 ГБ

В этой теме нет новых непрочитанных сообщений. Записки экспедитора тайной канцелярии [S01] (2010) HDTVRip

142 | 24

4.71 ГБ




Вы не можете начинать темы
Вы не можете отвечать на сообщения
Вы не можете редактировать свои сообщения
Вы не можете удалять свои сообщения
Вы не можете добавлять вложения

Перейти:  
Для Мосгорсуда, Роскомнадзора и рекламодателей: mosgorsud-torrent[собачка]yandex.ru
 Вход
ppkBB3cker v.2 © 2008-2014 @ PPK
[ Time : 0.046s | 14 Queries | GZIP : Off ]

Торрент трекер RUTOR.IN, Не можете зайти на rutor.org? Какой новый адрес рутор? Какое зеркало рутор? Не работает rutor.org и зеркала? Тогда наш торрент специально для вас. Rutor.in неофициальное зеркало rutor. В случае если у Вас заблокирован rutor или вдруг Вы не можете на него зайти, то Вы без труда сможете скачать бесплатно и без рекламы последние новинки кино, игр, сериалов и прочего у нас, на Rutor.in. Не нужно использовать прокси, чтобы зайти на рутор, достаточно воспользоваться нашим ресурсом. Все новые фильмы, игры, сериалы, книги и музыка за 2013 и 2014 годы через торрент бесплатно. Скачивайте фильмы в хорошем качестве, игры для пк, xbox, playstation без регистрации. У нас вы найдете новые Зарубежные сериалы и Русские сериалы 2013, 2014, 2015 годов. Оставайтесь с нами, качайте любимые фильмы, игры, сериалы, книги и музыку.