img image001 image001 image001 image001 image001 image001 image001 image001 image001 image001 image001 image001 image001 image001 image001

Planets Sun Sun Sun
Статистика раздачи
Автор: Nickolas3434 | Размер: 1.36 ГБ | Добавлен: 25 май 2014
Раздают: 484    Качают: 28
Скачать торрент
Скачать торрент
Описание торрента

СообщениеДобавлено: 25 май 2014 

Информация о фильме
Оригинальное название: Пельмени
Год выхода: 2013
Жанр: Черная комедия
Режиссер: Геннадий Островский
В ролях: Тимофей Трибунцев, Артём Осипов, Нина Лощинина, Один Ланд Байрон, Мария Данилюк

О фильме:
Есть две безусловные вещи — это мама и пельмени, которые она лепит. Даже если все через жопу и оттуда нет выхода, даже если твоя жена изменяет тебе с охранником филармонии, а твой младший брат посещает гей-клубы и зарабатывает в разы больше тебя, даже если тебя укусила бешеная собака, а в носовых платках тебе присылают отрубленные пальцы, помни, что всегда есть ценности, которые остаются незыблемыми: будь собой и никогда не ври маме!


Страна: Россия
Студия: Студия "Теорема"
Продолжительность: 01:32:38
Язык: Русский

Файл
Кодек: XviD
Качество: HDTVRip
Видео: 1660 Кбит/с, 720x368, 25.000 кадр/с
Звук: (АС3, 6 ch, 448 Кбит/с)

Семпл


Общее
Полное имя : Pelmeni.2013.HDTVRip.MediaClub.avi
Формат : AVI
Формат/Информация : Audio Video Interleave
Размер файла : 1,36 Гбайт
Продолжительность : 1 ч. 32 м.
Общий поток : 2106 Кбит/сек
Название фильма : MediaClub
Программа кодирования : VirtualDubMod 1.5.10.2 (build 2540/release)
Библиотека кодирования : VirtualDubMod build 2540/release

Видео
Идентификатор : 0
Формат : MPEG-4 Visual
Профиль формата : Advanced Simple@L5
Параметр BVOP формата : 2
Параметр QPel формата : Нет
Параметр GMC формата : Без точки перехода
Параметр матрицы формата : Default (MPEG)
Идентификатор кодека : XVID
Идентификатор кодека/Подсказка : XviD
Продолжительность : 1 ч. 32 м.
Битрейт : 1660 Кбит/сек
Ширина : 720 пикселей
Высота : 368 пикселей
Соотношение сторон : 1,957
Частота кадров : 25,000 кадров/сек
Цветовое пространство : YUV
Субдискретизация насыщенности : 4:2:0
Битовая глубина : 8 бит
Тип развёртки : Прогрессивная
Метод сжатия : С потерями
Бит/(Пиксели*Кадры) : 0.251
Размер потока : 1,07 Гбайт (79%)
Библиотека кодирования : XviD 65

Аудио
Идентификатор : 1
Формат : AC-3
Формат/Информация : Audio Coding 3
Расширение режима : CM (complete main)
Параметр Endianness формата : Big
Идентификатор кодека : 2000
Продолжительность : 1 ч. 30 м.
Вид битрейта : Постоянный
Битрейт : 448 Кбит/сек
Каналы : 6 каналов
Расположение каналов : Front: L C R, Side: L R, LFE
Частота : 48,0 КГц
Битовая глубина : 16 бит
Метод сжатия : С потерями
Размер потока : 289 Мбайт (21%)
Выравнивание : Разделение по промежуткам
Продолжительность промежутка : 41 мс. (1,03 видеокадр)
Время предзагрузки промежутка : 500 мс.


Релиз от:



   Похожие торренты   Торрент   Размер 
В этой теме нет новых непрочитанных сообщений. Пельмени (2013) HDTVRip-AVC от MediaClub

87 | 5

1.58 ГБ

В этой теме нет новых непрочитанных сообщений. Пельмени (2013) HDTVRip 1080p от MediaClub

55 | 6

3.58 ГБ

В этой теме нет новых непрочитанных сообщений. Пельмени (2013) HDTVRip 720p от MediaClub

59 | 5

2.29 ГБ

В этой теме нет новых непрочитанных сообщений. Пельмени (2013) HDTVRip

113 | 8

744.94 МБ

В этой теме нет новых непрочитанных сообщений. Пельмени (2013) SATRip

45 | 2

1.37 ГБ

В этой теме нет новых непрочитанных сообщений. Уральские пельмени [01-49] (2009-2013) SATRip

62 | 4

38.78 ГБ

В этой теме нет новых непрочитанных сообщений. Уральские пельмени [01-51] (2009-2013) SATRip

28 | 184

39.96 ГБ




Вы не можете начинать темы
Вы не можете отвечать на сообщения
Вы не можете редактировать свои сообщения
Вы не можете удалять свои сообщения
Вы не можете добавлять вложения

Перейти:  
Для Мосгорсуда, Роскомнадзора и рекламодателей: mosgorsud-torrent[собачка]yandex.ru
 Вход
ppkBB3cker v.2 © 2008-2014 @ PPK
[ Time : 0.077s | 14 Queries | GZIP : Off ]

Торрент трекер RUTOR.IN, Не можете зайти на rutor.org? Какой новый адрес рутор? Какое зеркало рутор? Не работает rutor.org и зеркала? Тогда наш торрент специально для вас. Rutor.in неофициальное зеркало rutor. В случае если у Вас заблокирован rutor или вдруг Вы не можете на него зайти, то Вы без труда сможете скачать бесплатно и без рекламы последние новинки кино, игр, сериалов и прочего у нас, на Rutor.in. Не нужно использовать прокси, чтобы зайти на рутор, достаточно воспользоваться нашим ресурсом. Все новые фильмы, игры, сериалы, книги и музыка за 2013 и 2014 годы через торрент бесплатно. Скачивайте фильмы в хорошем качестве, игры для пк, xbox, playstation без регистрации. У нас вы найдете новые Зарубежные сериалы и Русские сериалы 2013, 2014, 2015 годов. Оставайтесь с нами, качайте любимые фильмы, игры, сериалы, книги и музыку.