img image001 image001 image001 image001 image001 image001 image001 image001 image001 image001 image001 image001 image001 image001 image001

Planets Sun Sun Sun
Статистика раздачи
Автор: Nickolas3434 | Размер: 1.58 ГБ | Добавлен: 25 май 2014
Раздают: 87    Качают: 5
Скачать торрент
Скачать торрент
Описание торрента

СообщениеДобавлено: 25 май 2014 

Информация о фильме
Оригинальное название: Пельмени
Год выхода: 2013
Жанр: Черная комедия
Режиссер: Геннадий Островский
В ролях: Тимофей Трибунцев, Артём Осипов, Нина Лощинина, Один Ланд Байрон, Мария Данилюк

О фильме:
Есть две безусловные вещи — это мама и пельмени, которые она лепит. Даже если все через жопу и оттуда нет выхода, даже если твоя жена изменяет тебе с охранником филармонии, а твой младший брат посещает гей-клубы и зарабатывает в разы больше тебя, даже если тебя укусила бешеная собака, а в носовых платках тебе присылают отрубленные пальцы, помни, что всегда есть ценности, которые остаются незыблемыми: будь собой и никогда не ври маме!


Страна: Россия
Студия: Студия "Теорема"
Продолжительность: 01:32:38
Язык: Русский

Файл
Кодек: MPEG-4 AVC
Качество: HDTVRip (AVC)
Видео: 2000 Кбит/с, 1024x512, 25.000 кадр/с
Звук: Русский (АС3, 6 ch, 448 Кбит/с)

Семпл


Общее
Полное имя : Pelmeni.2013.x264.HDTVRip(AVC).MediaClub.mkv
Формат : Matroska
Версия формата : Version 2
Размер файла : 1,58 Гбайт
Продолжительность : 1 ч. 32 м.
Общий поток : 2438 Кбит/сек
Дата кодирования : UTC 2014-05-17 19:14:11
Программа кодирования : mkvmerge v5.4.0 ('Piper') built on Mar 10 2012 13:34:39
Библиотека кодирования : libebml v1.2.3 + libmatroska v1.3.0

Видео
Идентификатор : 1
Формат : AVC
Формат/Информация : Advanced Video Codec
Профиль формата : High@L4.1
Параметр CABAC формата : Да
Параметр ReFrames формата : 9 кадров
Идентификатор кодека : V_MPEG4/ISO/AVC
Продолжительность : 1 ч. 32 м.
Битрейт : 2000 Кбит/сек
Ширина : 1024 пикселя
Высота : 512 пикселей
Соотношение сторон : 2,000
Режим частоты кадров : Постоянный
Частота кадров : 25,000 кадров/сек
Цветовое пространство : YUV
Субдискретизация насыщенности : 4:2:0
Битовая глубина : 8 бит
Тип развёртки : Прогрессивная
Бит/(Пиксели*Кадры) : 0.153
Размер потока : 1,26 Гбайт (80%)
Библиотека кодирования : x264 core 125 r2208 d9d2288
Настройки программы : cabac=1 / ref=9 / deblock=1:-3:-2 / analyse=0x3:0x133 / me=umh / subme=10 / psy=1 / psy_rd=1.00:0.20 / mixed_ref=1 / me_range=48 / chroma_me=1 / trellis=2 / 8x8dct=1 / cqm=0 / deadzone=21,11 / fast_pskip=0 / chroma_qp_offset=-3 / threads=6 / lookahead_threads=1 / sliced_threads=0 / nr=0 / decimate=0 / interlaced=0 / bluray_compat=0 / constrained_intra=0 / bframes=8 / b_pyramid=2 / b_adapt=2 / b_bias=0 / direct=3 / weightb=1 / open_gop=0 / weightp=2 / keyint=250 / keyint_min=25 / scenecut=40 / intra_refresh=0 / rc=2pass / mbtree=0 / bitrate=2000 / ratetol=1.0 / qcomp=0.60 / qpmin=0 / qpmax=69 / qpstep=4 / cplxblur=20.0 / qblur=0.5 / ip_ratio=1.40 / pb_ratio=1.30 / aq=1:1.00
Default : Да
Forced : Нет

Аудио
Идентификатор : 2
Формат : AC-3
Формат/Информация : Audio Coding 3
Расширение режима : CM (complete main)
Параметр Endianness формата : Big
Идентификатор кодека : A_AC3
Продолжительность : 1 ч. 32 м.
Вид битрейта : Постоянный
Битрейт : 448 Кбит/сек
Каналы : 6 каналов
Расположение каналов : Front: L C R, Side: L R, LFE
Частота : 48,0 КГц
Битовая глубина : 16 бит
Метод сжатия : С потерями
Размер потока : 297 Мбайт (18%)
Язык : Russian
Default : Да
Forced : Нет


Релиз от:



   Похожие торренты   Торрент   Размер 
В этой теме нет новых непрочитанных сообщений. Пельмени (2013) HDTVRip от MediaClub

484 | 28

1.36 ГБ

В этой теме нет новых непрочитанных сообщений. Пельмени (2013) HDTVRip 720p от MediaClub

59 | 5

2.29 ГБ

В этой теме нет новых непрочитанных сообщений. Пельмени (2013) HDTVRip 1080p от MediaClub

55 | 6

3.58 ГБ

В этой теме нет новых непрочитанных сообщений. Пельмени (2013) HDTVRip

113 | 8

744.94 МБ

В этой теме нет новых непрочитанных сообщений. Пельмени (2013) SATRip

45 | 2

1.37 ГБ

В этой теме нет новых непрочитанных сообщений. Уральские пельмени. 20 лет в тесте [01] (2013) SATRip

30 | 7

572.6 МБ

В этой теме нет новых непрочитанных сообщений. Уральские пельмени [01-51] (2009-2013) SATRip

28 | 184

39.96 ГБ




Вы не можете начинать темы
Вы не можете отвечать на сообщения
Вы не можете редактировать свои сообщения
Вы не можете удалять свои сообщения
Вы не можете добавлять вложения

Перейти:  
Для Мосгорсуда, Роскомнадзора и рекламодателей: mosgorsud-torrent[собачка]yandex.ru
 Вход
ppkBB3cker v.2 © 2008-2014 @ PPK
[ Time : 0.103s | 14 Queries | GZIP : Off ]

Торрент трекер RUTOR.IN, Не можете зайти на rutor.org? Какой новый адрес рутор? Какое зеркало рутор? Не работает rutor.org и зеркала? Тогда наш торрент специально для вас. Rutor.in неофициальное зеркало rutor. В случае если у Вас заблокирован rutor или вдруг Вы не можете на него зайти, то Вы без труда сможете скачать бесплатно и без рекламы последние новинки кино, игр, сериалов и прочего у нас, на Rutor.in. Не нужно использовать прокси, чтобы зайти на рутор, достаточно воспользоваться нашим ресурсом. Все новые фильмы, игры, сериалы, книги и музыка за 2013 и 2014 годы через торрент бесплатно. Скачивайте фильмы в хорошем качестве, игры для пк, xbox, playstation без регистрации. У нас вы найдете новые Зарубежные сериалы и Русские сериалы 2013, 2014, 2015 годов. Оставайтесь с нами, качайте любимые фильмы, игры, сериалы, книги и музыку.