img image001 image001 image001 image001 image001 image001 image001 image001 image001 image001 image001 image001 image001 image001 image001

Planets Sun Sun Sun
Статистика раздачи
Автор: Nickolas3434 | Размер: 1.73 ГБ | Добавлен: 25 май 2014
Раздают: 39    Качают: 7
Скачать торрент
Скачать торрент
Описание торрента

СообщениеДобавлено: 25 май 2014 

Вот это любовь! (2013) WEB-DLRip-AVC | iPhone
«Догони его, если сможешь!»


Название: Вот это любовь!
Оригинальное название: Вот это любовь!
Год выхода: 2013
Жанр: комедия, мелодрама
Режиссер: Станислав Назиров
В ролях: Вера Баханкова, Сергей Годин, Анна Антонова, Евгений Косырев, Владимир Епифанцев, Константин Крюков, Валерий Баринов, Елена Валюшкина, Ёлка, Кирилл Ситников

О фильме:
Сюжет фильма рассказывает о незабываемых приключениях двух молодых москвичек. Заурядная деловая поездка становится захватывающей погоней, наполненной отличным настроением, неожиданными событиями, искрометным юмором и, конечно же, морем чувств и ярких эмоций!


Страна: Беларусь, Россия
Студия: ФМГ Продакшн Технолоджи

Продолжительность: 01:33:38
Перевод: не требуется

Файл
Кодек: H.264
Качество: WEB-DLRip [480p]
Видео: 640x458@852x458 (16:9) at 24.000 fps, AVC at 2400 kbps
Звук:
1: АAС 2.0 155 kbps - Русский
Субтитры: отсутствуют

General
Complete name : I:modoutVot.Eto.Lubov.2013.480p.O.m4v
Format : MPEG-4
Codec ID : M4V
File size : 1.73 GiB
Duration : 1h 33mn
Overall bit rate mode : Variable
Overall bit rate : 2 639 Kbps
Movie name : Вот это любовь!
Performer : Stanislav Nazirov
Genre : Comedy
ContentType : Short Film
Deion : Сюжет фильма рассказывает о незабываемых приключениях двух молодых москвичек. Заурядная деловая поездка становится захватывающей погоней, наполненной отличным настроением, неожиданными событиями, искрометным юмором и, конечно же, морем чувств и ярких
Recorded date : UTC 2013-01-01 08:00:00
Encoded date : UTC 2014-05-17 10:53:41
Tagged date : UTC 2014-05-17 20:23:05
Copyright : ФМГ Продакшн Технолоджи
Cover : Yes
Comment : «Догони его, если сможешь!»
ContentRating : ru-movie|16+|375|

Title/Sort : Vot Eto Lyubov!
LongDeion : Сюжет фильма рассказывает о незабываемых приключениях двух молодых москвичек. Заурядная деловая поездка становится захватывающей погоней, наполненной отличным настроением, неожиданными событиями, искрометным юмором и, конечно же, морем чувств и ярких эмоций!
AppleStoreCatalogID : 744255
Vendor : Apple:vendor_id:2013-744255

Video
ID : 1
Format : AVC
Format/Info : Advanced Video Codec
Format profile : Baseline@L3.0
Format settings, CABAC : No
Format settings, ReFrames : 2 frames
Codec ID : avc1
Codec ID/Info : Advanced Video Coding
Duration : 1h 33mn
Bit rate : 2 479 Kbps
Maximum bit rate : 8 569 Kbps
Width : 640 pixels
Height : 458 pixels
Display aspect ratio : 1.85:1
Frame rate mode : Constant
Frame rate : 24.000 fps
Color space : YUV
Chroma subsampling : 4:2:0
Bit depth : 8 bits
Scan type : Progressive
Bits/(Pixel*Frame) : 0.352
Stream size : 1.62 GiB (94%)
Language : English
Encoded date : UTC 2014-05-17 10:53:41
Tagged date : UTC 2014-05-17 10:53:54
Matrix coefficients : BT.709

Audio
ID : 2
Format : AAC
Format/Info : Advanced Audio Codec
Format profile : LC
Codec ID : 40
Duration : 1h 33mn
Bit rate mode : Variable
Bit rate : 155 Kbps
Maximum bit rate : 222 Kbps
Channel(s) : 2 channels
Channel positions : Front: L R
Sampling rate : 48.0 KHz
Compression mode : Lossy
Stream size : 104 MiB (6%)
Title : Original
Language : Russian
Encoded date : UTC 2014-05-17 10:51:24
Tagged date : UTC 2014-05-17 10:53:54

Menu
ID : 3
Codec ID : text
Duration : 1h 33mn
Encoded date : UTC 2014-05-17 10:54:05
Tagged date : UTC 2014-05-17 10:54:05
Bit rate mode : CBR
x264 [info]: frame I:2532 Avg QP:16.56 size: 42979
x264 [info]: frame P:132294 Avg QP:20.08 size: 12180
x264 [info]: mb I I16..4: 27.0% 0.0% 73.0%
x264 [info]: mb P I16..4: 0.9% 0.0% 2.3% P16..4: 49.7% 19.3% 10.2% 2.6% 1.1% skip:13.7%
x264 [info]: coded y,uvDC,uvAC intra: 70.3% 72.4% 44.9% inter: 46.0% 30.2% 13.7%
x264 [info]: i16 v,h,dc,p: 36% 14% 8% 42%
x264 [info]: i4 v,h,dc,ddl,ddr,vr,hd,vl,hu: 28% 15% 11% 6% 8% 10% 7% 9% 5%
x264 [info]: i8c dc,h,v,p: 51% 15% 25% 9%
x264 [info]: ref P L0: 80.5% 19.5%
x264 [info]: kb/s:2449.55

Sort Name: Vot Eto Lyubov!
XID: Apple:vendor_id:2013-744255
Content ID: 744255
Copyright: ФМГ Продакшн Технолоджи
ScreenWriters: Кирилл Ситников, Вадим Галыгин, Владимир Микулич
Producers: Вадим Галыгин, Владимир Микулич, Дмитрий Герман
Director: Станислав Назиров
Cast: Вера Баханкова, Сергей Годин, Анна Антонова, Евгений Косырев, Владимир Епифанцев, Константин Крюков, Валерий Баринов, Елена Валюшкина, Ёлка, Кирилл Ситников / Vera Bakhankova, Sergei Godin, Anna Antonova, Evgeniy Kosyrev, Vladimir Yepifantsev, Konstantin Kryukov, Valeriy Barinov, Elena Valyushkina
Rating: 16+
Long Deion: Сюжет фильма рассказывает о незабываемых приключениях двух молодых москвичек. Заурядная деловая поездка становится захватывающей погоней, наполненной отличным настроением, неожиданными событиями, искрометным юмором и, конечно же, морем чувств и ярких эмоций!
Deion: Сюжет фильма рассказывает о незабываемых приключениях двух молодых москвичек. Заурядная деловая поездка становится захватывающей погоней, наполненной отличным настроением, неожиданными событиями, искрометным юмором и, конечно же, морем чувств и ярких
Release Date: 2013-01-01T08:00:00Z
Genre: Comedy
Artist: Stanislav Nazirov
Name: Вот это любовь!
Comments: «Догони его, если сможешь!»





   Похожие торренты   Торрент   Размер 
В этой теме нет новых непрочитанных сообщений. Бомба [S01] (2013) WEB-DLRip | iPhone

0 | 2

1.91 ГБ

В этой теме нет новых непрочитанных сообщений. Пепел [01-05 из 05] (2013) WEB-DLRip | iPhone

23 | 8

2.36 ГБ

В этой теме нет новых непрочитанных сообщений. Турбо / Turbo (2013) WEB-DLRip | iPhone

26 | 2

533.31 МБ

В этой теме нет новых непрочитанных сообщений. Последователи / The Following [S01-02] (2013) WEB-DLRip | LostFilm | iPhone

3 | 29

7.08 ГБ

В этой теме нет новых непрочитанных сообщений. Черные кошки [01-12 из 12] (2013) WEB-DLRip | iPhone

2 | 5

2.91 ГБ

В этой теме нет новых непрочитанных сообщений. Смерть в сети / The Den (2013) WEB-DLRip-AVC | iPhone | D

47 | 6

793.02 МБ

В этой теме нет новых непрочитанных сообщений. Любовь за любовь [01-04 из 04] (2013) WEB-DLRip 720p

44 | 13

3.77 ГБ




Вы не можете начинать темы
Вы не можете отвечать на сообщения
Вы не можете редактировать свои сообщения
Вы не можете удалять свои сообщения
Вы не можете добавлять вложения

Перейти:  
Для Мосгорсуда, Роскомнадзора и рекламодателей: mosgorsud-torrent[собачка]yandex.ru
 Вход
ppkBB3cker v.2 © 2008-2014 @ PPK
[ Time : 0.041s | 16 Queries | GZIP : Off ]

cron